VERSION	0.00.00	1.03.00
FES_MODE	0
BPM_DEF	165.000	165.000	165.000	165.000
MET_DEF	4	4
RESOLUTION	384
CLK_DEF	384
COMPATIBLE_CODE	MA2

BPM	0	0	165.000
MET	0	0	4	4

HLD	1	0	0	288
TAP	2	0	1
TAP	2	96	2
TAP	2	192	3
TAP	2	288	4
HLD	3	0	5	288
TAP	4	0	6
TAP	4	96	7
TAP	4	192	0
TAP	4	288	1
HLD	5	0	0	288
TAP	6	0	7
TAP	6	96	5
TAP	6	192	3
TAP	6	288	1
HLD	7	0	7	288
TAP	8	0	0
TAP	8	96	2
TAP	8	192	4
BRK	8	288	6
TAP	9	0	2
TAP	9	96	1
HLD	9	192	0	96
TAP	10	0	5
TAP	10	96	6
HLD	10	192	7	96
TAP	11	0	0
TAP	11	96	7
TAP	11	192	1
TAP	11	288	6
TAP	12	0	2
TAP	12	96	5
TAP	12	192	3
TAP	12	288	4
TAP	13	0	0
TAP	13	96	1
TAP	13	192	2
TAP	13	288	3
TAP	14	0	7
TAP	14	96	6
TAP	14	192	5
TAP	14	288	4
STR	15	0	3
SI_	15	0	3	96	72	0
STR	15	192	4
SI_	15	192	4	96	72	7
STR	16	0	0
SI_	16	0	0	96	48	2
STR	16	192	7
SI_	16	192	7	96	48	5
TAP	17	0	1
TAP	17	96	1
TAP	17	192	1
TAP	17	288	1
TAP	18	0	5
TAP	18	96	4
TAP	18	192	5
TAP	18	288	4
TAP	19	0	6
TAP	19	96	6
TAP	19	192	6
TAP	19	288	6
TAP	20	0	2
TAP	20	96	3
TAP	20	192	2
TAP	20	288	3
TAP	21	0	1
TAP	21	96	1
TAP	21	192	0
TAP	21	288	0
TAP	22	0	7
TAP	22	96	7
TAP	22	192	6
TAP	22	288	6
HLD	23	0	5	192
HLD	23	192	4	192
HLD	24	0	3	192
BRK	24	192	2
TAP	25	0	1
TAP	25	96	1
TAP	25	192	0
TAP	25	288	7
TAP	26	0	6
TAP	26	96	6
TAP	26	192	7
TAP	26	288	0
TAP	27	0	2
TAP	27	96	2
TAP	27	192	3
TAP	27	288	3
TAP	28	0	4
TAP	28	96	4
TAP	28	192	5
TAP	28	288	5
TAP	29	0	6
TAP	29	96	6
TAP	29	192	5
TAP	29	288	4
TAP	30	0	1
TAP	30	96	1
TAP	30	192	2
TAP	30	288	3
TAP	31	0	3
TAP	31	0	4
TAP	31	192	2
TAP	31	192	5
TAP	31	288	1
TAP	31	288	6
TAP	32	0	0
TAP	32	0	7
BRK	32	192	0
BRK	32	288	7
TAP	33	0	0
TAP	33	0	1
TAP	33	96	2
TAP	33	192	3
TAP	33	288	4
TAP	34	0	4
TAP	34	0	5
TAP	34	96	6
TAP	34	192	7
TAP	34	288	0
TAP	35	0	0
TAP	35	0	1
TAP	35	96	7
TAP	35	192	6
TAP	35	288	5
TAP	36	0	4
TAP	36	0	5
TAP	36	96	4
TAP	36	192	3
TAP	36	288	2
STR	37	0	1
SI_	37	0	1	96	72	5
STR	37	192	6
SI_	37	192	6	96	72	2
STR	38	0	0
SI_	38	0	0	96	72	4
STR	38	192	7
SI_	38	192	7	96	72	3
TAP	39	0	1
TAP	39	96	2
TAP	39	192	3
TAP	39	288	3
TAP	39	288	4
TAP	40	0	4
TAP	40	96	5
TAP	40	192	6
TAP	40	288	6
TAP	40	288	7
TAP	41	0	1
TAP	41	96	0
TAP	41	192	2
TAP	41	288	7
TAP	42	0	3
TAP	42	96	6
TAP	42	192	4
TAP	42	288	5
TAP	43	0	3
TAP	43	96	2
TAP	43	96	4
TAP	43	192	4
TAP	43	288	3
TAP	43	288	5
TAP	44	0	2
TAP	44	96	1
TAP	44	96	3
TAP	44	192	5
TAP	44	288	4
TAP	44	288	6
TAP	45	0	3
TAP	45	0	7
TAP	45	96	2
TAP	45	96	6
TAP	45	192	1
TAP	45	192	5
TAP	45	288	0
TAP	45	288	4
HLD	46	0	0	192
HLD	46	0	7	192
BRK	46	288	0
STR	47	0	7
SI_	47	0	7	96	144	3
HLD	48	0	1	288
HLD	48	0	6	288
HLD	49	0	2	96
HLD	49	96	3	96
HLD	49	192	4	96
TAP	49	288	5
HLD	50	0	2	288
HLD	50	0	5	288
HLD	51	0	1	96
HLD	51	96	0	96
HLD	51	192	7	96
TAP	51	288	6
TAP	52	0	0
TAP	52	96	0
TAP	52	192	2
TAP	52	288	2
TAP	53	0	4
TAP	53	96	4
TAP	53	192	6
TAP	53	288	6
TAP	54	0	0
TAP	54	96	7
TAP	54	192	1
TAP	54	288	6
TAP	55	0	0
TAP	55	0	7
TAP	55	96	1
TAP	55	96	6
TAP	55	192	2
TAP	55	192	5
BRK	55	288	0
BRK	55	288	7
TAP	56	0	1
TAP	56	96	0
TAP	56	192	7
TAP	56	288	6
TAP	57	0	2
TAP	57	96	3
TAP	57	192	4
TAP	57	288	5
TAP	58	0	2
TAP	58	96	3
TAP	58	192	2
TAP	58	288	0
TAP	59	0	5
TAP	59	96	4
TAP	59	192	5
TAP	59	288	7
STR	60	0	0
SI_	60	0	0	96	72	4
STR	60	192	7
SI_	60	192	7	96	72	3
STR	61	0	1
SI_	61	0	1	96	72	4
STR	61	192	6
SI_	61	192	6	96	72	3
TAP	62	0	2
TAP	62	96	2
TAP	62	96	3
TAP	62	192	5
TAP	62	288	4
TAP	62	288	5
TAP	63	0	1
TAP	63	96	2
TAP	63	96	3
TAP	63	192	6
TAP	63	288	4
TAP	63	288	5
HLD	64	0	1	96
TAP	64	96	2
HLD	64	192	6	96
TAP	64	288	5
HLD	65	0	1	96
HLD	65	96	0	96
HLD	65	192	7	96
TAP	65	288	6
TAP	66	0	6
TAP	66	0	7
STR	66	96	0
SI_	66	96	0	96	72	5
STR	66	96	1
SI_	66	96	1	96	72	4
TAP	67	0	0
TAP	67	0	1
STR	67	96	6
SI_	67	96	6	96	72	3
STR	67	96	7
SI_	67	96	7	96	72	2
TAP	68	0	4
TAP	68	96	3
TAP	68	192	5
TAP	68	288	2
TAP	69	0	6
TAP	69	96	1
TAP	69	192	7
BRK	69	288	0
TAP	70	0	0
TAP	70	96	1
TAP	70	192	2
TAP	70	288	3
TAP	71	0	4
TAP	71	96	5
TAP	71	192	6
TAP	71	288	7
TAP	72	0	7
TAP	72	96	6
TAP	72	192	5
TAP	72	288	4
TAP	73	0	3
TAP	73	96	2
TAP	73	192	1
TAP	73	288	0
STR	74	0	7
SI_	74	0	7	96	72	3
STR	74	192	1
SI_	74	192	1	96	72	5
STR	75	0	6
SI_	75	0	6	96	72	2
STR	75	192	0
SI_	75	192	0	96	72	4
TAP	76	0	7
TAP	76	96	0
TAP	76	192	6
TAP	76	288	1
TAP	77	0	5
TAP	77	96	2
TAP	77	192	3
TAP	77	192	4
BRK	77	288	0
BRK	77	288	7
HLD	78	0	0	288
TAP	79	0	7
TAP	79	96	5
TAP	79	192	3
TAP	79	288	1
HLD	80	0	7	288
TAP	81	0	0
TAP	81	96	2
TAP	81	192	4
BRK	81	288	6

T_REC_TAP	242
T_REC_BRK	11
T_REC_XTP	0
T_REC_HLD	28
T_REC_XHO	0
T_REC_STR	21
T_REC_BST	0
T_REC_XST	0
T_REC_TTP	0
T_REC_THO	0
T_REC_SLD	21
T_REC_ALL	323
T_NUM_TAP	263
T_NUM_BRK	11
T_NUM_HLD	28
T_NUM_SLD	21
T_NUM_ALL	323
T_JUDGE_TAP	274
T_JUDGE_HLD	106
T_JUDGE_SLD	21
T_JUDGE_ALL	401
TTM_EACHPAIRS	35
TTM_SCR_TAP	131500
TTM_SCR_BRK	28600
TTM_SCR_HLD	28000
TTM_SCR_SLD	31500
TTM_SCR_ALL	219600
TTM_SCR_S	211950
TTM_SCR_SS	218500
TTM_RAT_ACV	10050

