VERSION	0.00.00	1.03.00
FES_MODE	0
BPM_DEF	165.000	165.000	165.000	165.000
MET_DEF	4	4
RESOLUTION	384
CLK_DEF	384
COMPATIBLE_CODE	MA2

BPM	0	0	165.000
MET	0	0	4	4

TAP	5	0	1
TAP	5	192	2
TAP	6	0	3
TAP	7	0	4
TAP	7	192	3
TAP	8	0	2
TAP	9	0	2
TAP	9	192	1
TAP	10	0	0
TAP	10	192	0
TAP	11	0	7
TAP	11	192	6
TAP	12	0	7
TAP	12	192	7
TAP	13	0	0
TAP	13	192	1
TAP	14	0	0
TAP	14	192	0
TAP	15	0	7
TAP	15	192	6
HLD	16	0	5	192
TAP	17	0	4
TAP	17	192	4
TAP	18	0	3
TAP	18	192	3
TAP	19	0	2
TAP	19	192	2
TAP	20	0	1
TAP	20	96	1
TAP	20	192	1
TAP	21	0	0
TAP	21	192	0
TAP	22	0	7
TAP	22	192	7
TAP	23	0	6
TAP	23	192	6
TAP	24	0	5
TAP	24	96	5
TAP	24	192	5
STR	25	0	6
SI_	25	0	6	96	288	1
STR	27	0	2
SI_	27	0	2	96	288	5
TAP	29	0	6
TAP	29	0	7
TAP	30	0	0
TAP	30	0	1
TAP	31	0	0
TAP	31	192	7
BRK	32	0	0
BRK	32	0	7
TAP	33	0	0
TAP	33	96	0
TAP	33	192	0
HLD	34	0	1	192
TAP	35	0	0
TAP	35	96	0
TAP	35	192	0
HLD	36	0	7	192
TAP	37	0	7
TAP	37	192	7
TAP	38	0	6
TAP	38	192	6
TAP	39	0	7
TAP	39	96	7
TAP	39	192	7
HLD	40	0	6	192
TAP	41	0	7
TAP	41	96	7
TAP	41	192	7
HLD	42	0	0	192
TAP	43	0	0
TAP	43	192	0
TAP	44	0	1
TAP	44	192	1
TAP	45	0	2
STR	45	192	2
SI_	45	192	2	96	288	7
TAP	48	0	6
TAP	49	0	5
TAP	50	0	4
TAP	51	0	3
TAP	52	0	2
TAP	52	192	2
TAP	53	0	1
TAP	53	192	1
TAP	54	0	0
TAP	54	192	0
TAP	55	0	0
TAP	55	0	7
BRK	55	192	0
BRK	55	192	7
TAP	56	0	7
TAP	56	96	7
TAP	56	192	7
TAP	57	0	6
TAP	57	192	6
TAP	58	0	7
TAP	58	96	7
TAP	58	192	7
TAP	59	0	0
TAP	59	192	0
TAP	60	0	1
TAP	60	96	1
TAP	60	192	1
TAP	61	0	2
TAP	61	96	2
TAP	61	192	2
TAP	62	0	3
TAP	62	96	3
TAP	62	192	3
TAP	63	0	2
TAP	63	192	2
TAP	64	0	3
TAP	64	96	3
TAP	64	192	3
TAP	65	0	4
TAP	65	192	4
TAP	66	0	5
TAP	66	96	5
TAP	66	192	5
TAP	67	0	6
TAP	67	96	6
TAP	67	192	6
TAP	68	0	7
TAP	68	96	7
TAP	68	192	0
TAP	68	288	0
HLD	69	0	1	192
HLD	69	0	6	192
TAP	70	0	1
TAP	70	192	0
TAP	70	192	1
TAP	71	0	0
TAP	71	192	0
TAP	71	192	7
TAP	72	0	7
TAP	72	192	6
TAP	72	192	7
TAP	73	0	6
TAP	73	96	6
TAP	73	192	6
TAP	74	0	5
TAP	74	192	4
TAP	74	192	5
TAP	75	0	4
TAP	75	192	3
TAP	75	192	4
TAP	76	0	3
TAP	76	192	2
TAP	76	192	3
TAP	77	0	2
TAP	77	96	2
BRK	77	192	2
TAP	78	0	1
TAP	78	192	1
TAP	79	0	0
TAP	79	192	0
HLD	80	0	7	192
TAP	81	0	0
TAP	81	96	0
TAP	81	192	0
BRK	81	288	0

T_REC_TAP	143
T_REC_BRK	6
T_REC_XTP	0
T_REC_HLD	8
T_REC_XHO	0
T_REC_STR	3
T_REC_BST	0
T_REC_XST	0
T_REC_TTP	0
T_REC_THO	0
T_REC_SLD	3
T_REC_ALL	163
T_NUM_TAP	146
T_NUM_BRK	6
T_NUM_HLD	8
T_NUM_SLD	3
T_NUM_ALL	163
T_JUDGE_TAP	152
T_JUDGE_HLD	32
T_JUDGE_SLD	3
T_JUDGE_ALL	187
TTM_EACHPAIRS	12
TTM_SCR_TAP	73000
TTM_SCR_BRK	15600
TTM_SCR_HLD	8000
TTM_SCR_SLD	4500
TTM_SCR_ALL	101100
TTM_SCR_S	97500
TTM_SCR_SS	100500
TTM_RAT_ACV	10059

