VERSION	0.00.00	1.03.00
FES_MODE	0
BPM_DEF	172.000	172.000	172.000	172.000
MET_DEF	4	4
RESOLUTION	384
CLK_DEF	384
COMPATIBLE_CODE	MA2

BPM	0	0	172.000
MET	0	0	4	4

HLD	1	0	0	192
TAP	1	96	1
HLD	1	192	2	192
TAP	1	288	3
HLD	2	0	4	192
TAP	2	96	5
HLD	2	192	6	192
TAP	2	288	7
TAP	3	0	0
TAP	3	48	0
TAP	3	96	6
TAP	3	144	6
TAP	3	192	2
TAP	3	240	2
TAP	3	288	4
TAP	3	336	4
TAP	4	0	3
TAP	4	48	3
TAP	4	96	5
TAP	4	144	5
TAP	4	192	1
TAP	4	240	1
TAP	4	288	7
TAP	4	336	7
STR	5	0	0
SI_	5	0	0	96	48	4
STR	5	96	7
SI_	5	96	7	96	48	3
STR	5	192	1
SI_	5	192	1	96	48	4
STR	5	288	6
SI_	5	288	6	96	48	3
STR	6	0	0
SI_	6	0	0	96	48	4
STR	6	96	7
SI_	6	96	7	96	48	3
STR	6	192	1
SI_	6	192	1	96	48	4
STR	6	288	6
SI_	6	288	6	96	48	3
STR	7	0	0
SI_	7	0	0	96	48	4
STR	7	96	1
SI_	7	96	1	96	48	5
STR	7	192	2
SI_	7	192	2	96	48	6
STR	7	288	3
SI_	7	288	3	96	48	7
STR	8	0	4
SI_	8	0	4	96	48	0
STR	8	96	5
SI_	8	96	5	96	48	1
STR	8	192	6
SI_	8	192	6	96	48	2
BRK	8	288	7
HLD	9	0	0	144
TAP	9	144	2
HLD	9	192	2	144
TAP	9	336	4
TAP	10	0	6
TAP	10	72	7
TAP	10	144	0
TAP	10	192	1
TAP	10	192	3
TAP	10	288	5
TAP	10	336	4
HLD	11	0	3	144
TAP	11	144	1
HLD	11	192	1	72
TAP	11	264	0
TAP	11	336	7
STR	12	0	0
SCR	12	0	0	96	48	3
STR	12	0	5
SCR	12	0	5	96	48	0
TAP	12	192	1
TAP	12	192	6
TAP	12	288	0
TAP	12	336	7
HLD	13	0	6	144
TAP	13	144	4
HLD	13	192	4	72
TAP	13	264	3
TAP	13	336	2
TAP	14	0	0
TAP	14	0	1
TAP	14	72	2
TAP	14	72	7
TAP	14	144	3
TAP	14	144	6
TAP	14	192	6
TAP	14	192	7
TAP	14	264	0
TAP	14	264	5
TAP	14	336	1
TAP	14	336	4
TAP	15	0	2
HLD	15	0	3	96
HLD	15	96	5	96
TAP	15	192	6
TAP	15	264	0
TAP	15	336	7
TAP	16	0	2
TAP	16	0	6
STR	16	96	0
SCR	16	96	0	96	48	3
STR	16	96	4
SI_	16	96	4	96	48	7
TAP	16	192	0
TAP	16	192	4
TAP	17	0	1
STR	17	0	2
SCR	17	0	2	96	48	5
TAP	17	144	6
STR	17	192	6
SCL	17	192	6	96	48	3
TAP	17	192	7
TAP	17	336	1
TAP	18	0	0
TAP	18	0	1
TAP	18	72	3
TAP	18	144	4
TAP	18	192	6
TAP	18	192	7
TAP	18	288	5
TAP	18	336	4
STR	19	0	3
SUL	19	0	3	96	48	6
TAP	19	144	4
STR	19	192	5
SUR	19	192	5	96	48	1
TAP	19	264	4
TAP	19	336	3
STR	20	0	2
SCL	20	0	2	96	96	5
TAP	20	192	0
TAP	20	288	7
TAP	20	336	0
STR	21	0	1
SUR	21	0	1	96	48	5
TAP	21	144	0
STR	21	192	7
SUL	21	192	7	96	48	2
TAP	21	240	7
TAP	21	336	1
TAP	22	0	0
TAP	22	0	1
TAP	22	72	2
TAP	22	72	7
TAP	22	144	3
TAP	22	144	6
TAP	22	192	6
TAP	22	192	7
TAP	22	264	0
TAP	22	264	5
TAP	22	336	1
TAP	22	336	4
TAP	23	0	2
TAP	23	0	3
TAP	23	96	3
TAP	23	96	5
TAP	23	192	2
TAP	23	192	4
TAP	23	264	3
TAP	23	264	6
TAP	23	336	1
TAP	23	336	5
STR	24	0	3
SCL	24	0	3	96	48	0
STR	24	0	7
SI_	24	0	7	96	48	4
BRK	24	240	7
BRK	24	288	7
HLD	25	0	2	72
TAP	25	72	3
TAP	25	144	1
TAP	25	144	4
HLD	25	192	5	72
TAP	25	264	4
TAP	25	336	3
TAP	25	336	6
HLD	26	0	1	72
TAP	26	72	0
TAP	26	144	2
TAP	26	144	7
TAP	26	192	0
TAP	26	192	6
TAP	26	264	1
TAP	26	264	7
TAP	26	336	0
TAP	26	336	6
HLD	27	0	2	72
TAP	27	72	0
TAP	27	144	1
TAP	27	144	4
HLD	27	192	5	72
TAP	27	264	7
TAP	27	336	3
TAP	27	336	6
TAP	28	0	0
TAP	28	24	1
TAP	28	48	2
TAP	28	72	3
TAP	28	96	4
TAP	28	120	5
TAP	28	144	6
TAP	28	168	7
TAP	28	192	0
TAP	28	216	1
TAP	28	240	2
TAP	28	264	3
TAP	28	288	4
TAP	28	288	5
HLD	29	0	6	72
TAP	29	72	7
TAP	29	144	0
TAP	29	144	5
HLD	29	192	1	72
TAP	29	264	0
TAP	29	336	2
TAP	29	336	7
HLD	30	0	5	72
TAP	30	72	4
TAP	30	144	3
TAP	30	144	6
TAP	30	192	0
TAP	30	192	5
TAP	30	264	2
TAP	30	264	7
TAP	30	336	0
TAP	30	336	5
HLD	31	0	3	72
TAP	31	72	7
TAP	31	144	1
TAP	31	144	5
HLD	31	192	4	72
TAP	31	264	0
TAP	31	336	2
TAP	31	336	6
TAP	32	0	4
TAP	32	24	5
TAP	32	48	6
TAP	32	72	7
TAP	32	96	0
TAP	32	120	1
TAP	32	144	2
TAP	32	168	3
TAP	32	192	4
TAP	32	216	5
TAP	32	240	6
TAP	32	264	7
BRK	32	288	0
STR	33	0	1
SI_	33	0	1	96	48	4
TAP	33	72	1
TAP	33	144	6
TAP	33	192	6
TAP	33	240	1
TAP	33	288	0
TAP	33	336	1
STR	34	0	6
SI_	34	0	6	96	48	3
TAP	34	72	6
TAP	34	144	1
TAP	34	192	1
TAP	34	240	7
TAP	34	336	0
HLD	35	0	3	72
HLD	35	72	2	72
TAP	35	144	1
HLD	35	192	5	72
HLD	35	264	6	72
STR	35	336	7
SCL	35	336	7	96	144	0
TAP	36	0	7
STR	37	0	2
SI_	37	0	2	96	48	7
TAP	37	72	2
TAP	37	144	5
TAP	37	192	5
TAP	37	240	1
TAP	37	288	0
TAP	37	336	1
STR	38	0	5
SI_	38	0	5	96	48	0
TAP	38	72	5
TAP	38	144	2
TAP	38	192	2
TAP	38	240	7
TAP	38	336	0
HLD	39	0	4	72
HLD	39	72	2	72
TAP	39	144	0
HLD	39	192	4	72
HLD	39	264	6	72
STR	39	336	0
SSL	39	336	0	96	96	4
TAP	40	0	0
BRK	40	240	7
BRK	40	288	7
STR	41	0	6
SCL	41	0	6	96	48	3
TAP	41	72	6
TAP	41	144	1
TAP	41	192	1
TAP	41	240	6
TAP	41	288	7
TAP	41	336	6
STR	42	0	1
SCR	42	0	1	96	48	4
TAP	42	72	1
TAP	42	144	6
TAP	42	192	6
TAP	42	240	0
TAP	42	336	7
HLD	43	0	4	72
HLD	43	72	5	72
TAP	43	144	6
HLD	43	192	2	72
HLD	43	264	1	72
STR	43	336	0
SCR	43	336	0	96	144	7
TAP	44	0	0
BRK	44	240	0
BRK	44	288	0
STR	45	0	5
SCR	45	0	5	96	48	0
TAP	45	72	5
TAP	45	144	2
TAP	45	192	2
TAP	45	240	6
TAP	45	288	7
TAP	45	336	6
STR	46	0	2
SCL	46	0	2	96	48	7
TAP	46	72	2
TAP	46	144	5
TAP	46	192	5
TAP	46	240	0
TAP	46	336	7
HLD	47	0	3	72
HLD	47	72	5	72
TAP	47	144	7
HLD	47	192	3	72
HLD	47	264	1	72
STR	47	336	7
SSR	47	336	7	96	96	3
TAP	48	0	7
BRK	48	240	0
BRK	48	288	0
HLD	49	0	0	96
TAP	49	0	7
HLD	49	96	1	96
HLD	49	192	2	96
HLD	49	288	3	96
HLD	50	0	4	96
HLD	50	96	5	96
HLD	50	192	6	96
TAP	50	288	7
HLD	51	0	4	96
TAP	51	0	5
HLD	51	96	1	96
HLD	51	192	6	96
HLD	51	288	3	96
HLD	52	0	0	96
HLD	52	96	5	96
HLD	52	192	2	96
STR	52	288	7
SI_	52	288	7	96	48	3
BRK	53	0	7
BRK	55	288	2
BRK	55	288	6
TAP	56	0	0
TAP	56	48	0
TAP	56	96	7
TAP	56	144	7
TAP	56	192	1
TAP	56	240	1
TAP	56	288	6
TAP	56	336	6
TAP	57	0	2
TAP	57	48	2
TAP	57	96	5
TAP	57	144	5
TAP	57	192	3
TAP	57	240	3
TAP	57	288	4
TAP	57	336	4
TAP	58	0	3
TAP	58	24	4
TAP	58	48	3
TAP	58	72	4
TAP	58	96	3
TAP	58	120	4
TAP	58	144	3
TAP	58	168	4
TAP	58	192	3
TAP	58	216	4
TAP	58	240	3
TAP	58	264	4
TAP	58	288	3
TAP	58	312	4
TAP	58	336	3
TAP	58	360	4
TAP	59	0	3
TAP	59	24	2
TAP	59	48	1
TAP	59	72	0
TAP	59	96	7
TAP	59	120	6
TAP	59	144	5
TAP	59	168	4
TAP	59	192	3
TAP	59	216	2
TAP	59	240	1
TAP	59	264	0
BRK	59	288	7
STR	60	0	1
SUL	60	0	1	96	72	4
TAP	60	72	1
TAP	60	144	6
TAP	60	192	6
TAP	60	240	1
TAP	60	240	7
TAP	60	288	0
TAP	60	288	6
TAP	60	336	1
TAP	60	336	7
STR	61	0	6
SUR	61	0	6	96	72	3
TAP	61	72	6
TAP	61	144	1
TAP	61	192	1
TAP	61	240	6
TAP	61	240	7
TAP	61	336	0
TAP	61	336	1
HLD	62	0	3	72
HLD	62	72	2	72
TAP	62	144	1
HLD	62	192	5	72
HLD	62	264	6	72
STR	62	336	7
SCL	62	336	7	96	144	0
HLD	63	0	7	192
STR	64	0	2
SUR	64	0	2	96	72	7
TAP	64	72	2
TAP	64	144	5
TAP	64	192	5
TAP	64	240	1
TAP	64	240	6
TAP	64	288	0
TAP	64	288	7
TAP	64	336	1
TAP	64	336	6
STR	65	0	5
SUL	65	0	5	96	72	0
TAP	65	72	5
TAP	65	144	2
TAP	65	192	2
TAP	65	240	1
TAP	65	240	7
TAP	65	336	0
TAP	65	336	6
HLD	66	0	4	72
HLD	66	72	2	72
TAP	66	144	0
HLD	66	192	4	72
HLD	66	264	6	72
STR	66	336	0
SSL	66	336	0	96	96	4
TAP	67	0	0
BRK	67	240	7
BRK	67	288	7
STR	68	0	6
SUL	68	0	6	96	96	5
TAP	68	72	6
TAP	68	144	1
TAP	68	192	1
TAP	68	240	0
TAP	68	240	6
TAP	68	288	1
TAP	68	288	7
TAP	68	336	0
TAP	68	336	6
STR	69	0	1
SUR	69	0	1	96	96	2
TAP	69	72	1
TAP	69	144	6
TAP	69	192	6
TAP	69	240	5
TAP	69	240	7
TAP	69	336	0
TAP	69	336	2
HLD	70	0	4	72
HLD	70	72	5	72
TAP	70	144	6
HLD	70	192	2	72
HLD	70	264	1	72
STR	70	336	0
SCR	70	336	0	96	144	7
HLD	71	0	0	192
BRK	71	240	0
BRK	71	288	0
STR	72	0	5
SUR	72	0	5	96	96	6
TAP	72	72	5
TAP	72	144	2
TAP	72	192	2
TAP	72	240	0
TAP	72	240	7
TAP	72	288	1
TAP	72	288	6
TAP	72	336	0
TAP	72	336	7
STR	73	0	2
SUL	73	0	2	96	96	1
TAP	73	72	2
TAP	73	144	5
TAP	73	192	5
TAP	73	240	0
TAP	73	240	6
TAP	73	336	1
TAP	73	336	7
HLD	74	0	3	72
HLD	74	72	5	72
TAP	74	144	7
HLD	74	192	3	72
HLD	74	264	1	72
STR	74	336	7
SSR	74	336	7	96	96	3
TAP	75	0	7
BRK	75	240	0
BRK	75	288	0
TAP	76	0	2
TAP	76	0	4
TAP	76	72	1
TAP	76	72	3
TAP	76	144	0
TAP	76	144	2
TAP	76	192	4
TAP	76	192	6
TAP	76	264	5
TAP	76	264	7
STR	76	336	0
SSL	76	336	0	96	96	4
TAP	76	336	6
TAP	77	0	0
TAP	77	48	7
TAP	77	72	7
BRK	77	240	0
TAP	77	288	1
BRK	77	336	0
TAP	78	0	2
TAP	78	0	5
TAP	78	48	3
TAP	78	96	4
TAP	78	144	3
TAP	78	192	2
TAP	78	192	5
BRK	78	240	0
BRK	78	336	7
TAP	79	0	3
TAP	79	0	6
TAP	79	48	2
TAP	79	96	7
TAP	79	144	2
TAP	79	192	1
TAP	79	192	4
TAP	79	240	5
STR	79	288	0
SCR	79	288	0	96	48	3
TAP	79	336	5
STR	80	0	0
SCL	80	0	0	96	48	5
STR	80	96	0
SUR	80	96	0	96	72	1
TAP	80	192	0
BRK	80	240	7
BRK	80	288	7
TAP	81	0	1
TAP	81	0	6
TAP	81	48	0
TAP	81	96	7
TAP	81	144	0
TAP	81	192	1
TAP	81	192	6
BRK	81	240	0
TAP	81	288	1
BRK	81	336	0
TAP	82	0	2
TAP	82	0	5
TAP	82	48	4
TAP	82	96	3
TAP	82	144	4
TAP	82	192	2
TAP	82	192	5
BRK	82	240	7
BRK	82	336	0
TAP	83	0	1
TAP	83	0	4
TAP	83	48	5
TAP	83	96	0
TAP	83	144	5
TAP	83	192	3
TAP	83	192	6
TAP	83	240	2
STR	83	288	7
SCL	83	288	7	96	48	4
TAP	83	336	2
STR	84	0	7
SCR	84	0	7	96	48	2
STR	84	96	7
SUL	84	96	7	96	72	6
TAP	84	192	7
BRK	84	240	0
BRK	84	288	0
STR	85	0	2
SCR	85	0	2	96	672	5
STR	85	0	5
SI_	85	0	5	96	672	2

T_REC_TAP	396
T_REC_BRK	32
T_REC_XTP	0
T_REC_HLD	70
T_REC_XHO	0
T_REC_STR	62
T_REC_BST	0
T_REC_XST	0
T_REC_TTP	0
T_REC_THO	0
T_REC_SLD	62
T_REC_ALL	622
T_NUM_TAP	458
T_NUM_BRK	32
T_NUM_HLD	70
T_NUM_SLD	62
T_NUM_ALL	622
T_JUDGE_TAP	490
T_JUDGE_HLD	156
T_JUDGE_SLD	62
T_JUDGE_ALL	708
TTM_EACHPAIRS	86
TTM_SCR_TAP	229000
TTM_SCR_BRK	83200
TTM_SCR_HLD	70000
TTM_SCR_SLD	93000
TTM_SCR_ALL	475200
TTM_SCR_S	457850
TTM_SCR_SS	472000
TTM_RAT_ACV	10067

