VERSION	0.00.00	1.03.00
FES_MODE	0
BPM_DEF	172.000	172.000	172.000	172.000
MET_DEF	4	4
RESOLUTION	384
CLK_DEF	384
COMPATIBLE_CODE	MA2

BPM	0	0	172.000
MET	0	0	4	4

HLD	1	0	7	192
HLD	1	192	5	192
HLD	2	0	3	192
HLD	2	192	1	192
HLD	3	0	0	96
HLD	3	96	1	96
HLD	3	192	2	96
HLD	3	288	3	96
HLD	4	0	4	96
HLD	4	96	5	96
HLD	4	192	6	96
TAP	4	288	7
HLD	5	0	7	96
HLD	5	96	6	96
HLD	5	192	5	96
TAP	5	288	4
HLD	6	0	0	96
HLD	6	96	1	96
HLD	6	192	2	96
TAP	6	288	3
HLD	7	0	7	96
HLD	7	96	6	96
HLD	7	192	5	96
TAP	7	288	4
HLD	8	0	0	96
HLD	8	96	1	96
HLD	8	192	2	96
TAP	8	288	3
HLD	9	0	6	96
TAP	9	96	5
HLD	9	192	1	96
STR	9	288	2
SUR	9	288	2	96	192	3
TAP	10	288	4
TAP	10	288	5
HLD	11	0	0	96
TAP	11	96	1
HLD	11	192	7	96
STR	11	288	6
SCL	11	288	6	96	192	1
TAP	12	288	0
TAP	12	288	1
HLD	13	0	5	96
TAP	13	96	4
HLD	13	192	2	96
TAP	13	288	3
HLD	14	0	6	96
TAP	14	96	7
HLD	14	192	1	96
TAP	14	288	0
HLD	15	0	6	96
STR	15	96	5
SUR	15	96	5	96	96	2
HLD	16	0	4	96
TAP	16	96	3
BRK	16	192	1
BRK	16	192	6
TAP	17	0	4
HLD	17	0	5	96
TAP	17	96	1
HLD	17	192	2	96
TAP	17	192	3
TAP	17	288	6
TAP	18	0	5
HLD	18	0	6	96
TAP	18	96	0
HLD	18	192	1	96
TAP	18	192	2
TAP	18	288	7
STR	19	0	3
SI_	19	0	3	96	96	7
STR	19	192	4
SI_	19	192	4	96	96	0
STR	20	0	3
SSL	20	0	3	96	192	7
HLD	21	0	2	96
TAP	21	0	3
TAP	21	96	6
TAP	21	192	4
HLD	21	192	5	96
TAP	21	288	1
HLD	22	0	1	96
TAP	22	0	2
TAP	22	96	7
TAP	22	192	5
HLD	22	192	6	96
TAP	22	288	0
TAP	23	0	0
HLD	23	0	1	96
TAP	23	96	4
HLD	23	192	6	96
TAP	23	192	7
STR	23	288	3
SUL	23	288	3	96	192	4
BRK	24	240	7
BRK	24	288	7
HLD	25	0	6	72
HLD	25	72	5	72
TAP	25	144	4
HLD	25	192	1	72
HLD	25	264	2	72
TAP	25	336	3
HLD	26	0	6	72
HLD	26	72	5	72
TAP	26	144	4
HLD	26	192	1	72
HLD	26	264	2	72
TAP	26	336	3
HLD	27	0	7	72
HLD	27	72	6	72
TAP	27	144	5
HLD	27	192	0	72
HLD	27	264	1	72
TAP	27	336	2
STR	28	0	3
SCL	28	0	3	96	144	0
STR	28	0	4
SCR	28	0	4	96	144	7
HLD	29	0	1	72
HLD	29	72	2	72
TAP	29	144	3
HLD	29	192	6	72
HLD	29	264	5	72
TAP	29	336	4
HLD	30	0	1	72
HLD	30	72	2	72
TAP	30	144	3
HLD	30	192	6	72
HLD	30	264	5	72
TAP	30	336	4
HLD	31	0	0	72
HLD	31	72	1	72
TAP	31	144	2
HLD	31	192	7	72
HLD	31	264	6	72
STR	31	336	5
SCR	31	336	5	96	192	4
BRK	32	288	1
BRK	32	288	6
HLD	33	0	3	72
HLD	33	72	4	72
TAP	33	144	5
TAP	33	192	5
TAP	33	288	1
TAP	33	288	7
HLD	34	0	3	72
HLD	34	72	2	72
TAP	34	144	1
TAP	34	192	1
HLD	34	240	7	96
TAP	34	336	0
HLD	35	0	5	72
HLD	35	72	6	72
TAP	35	144	7
HLD	35	192	2	72
HLD	35	264	1	72
TAP	35	336	0
STR	36	0	0
SCR	36	0	0	96	96	5
TAP	36	240	7
TAP	36	288	7
HLD	37	0	4	72
HLD	37	72	3	72
TAP	37	144	2
TAP	37	192	2
TAP	37	288	0
TAP	37	288	6
HLD	38	0	4	72
HLD	38	72	5	72
TAP	38	144	6
TAP	38	192	6
HLD	38	240	0	96
TAP	38	336	7
HLD	39	0	2	72
HLD	39	72	1	72
TAP	39	144	0
HLD	39	192	5	72
HLD	39	264	6	72
TAP	39	336	7
TAP	40	0	0
TAP	40	0	6
TAP	40	96	1
TAP	40	96	7
BRK	40	240	1
BRK	40	240	6
BRK	40	288	1
BRK	40	288	6
HLD	41	0	0	72
HLD	41	72	7	72
TAP	41	144	6
TAP	41	192	6
TAP	41	288	2
TAP	41	288	4
HLD	42	0	0	72
HLD	42	72	1	72
TAP	42	144	2
TAP	42	192	2
HLD	42	240	7	96
TAP	42	336	0
HLD	43	0	0	72
HLD	43	72	1	72
TAP	43	144	2
HLD	43	192	7	72
HLD	43	264	6	72
TAP	43	336	5
STR	44	0	5
SCL	44	0	5	96	96	0
TAP	44	240	7
TAP	44	288	7
HLD	45	0	7	72
HLD	45	72	0	72
TAP	45	144	1
TAP	45	192	1
TAP	45	288	3
TAP	45	288	5
HLD	46	0	7	72
HLD	46	72	6	72
TAP	46	144	5
TAP	46	192	5
HLD	46	240	0	96
TAP	46	336	7
HLD	47	0	7	72
HLD	47	72	6	72
TAP	47	144	5
HLD	47	192	0	72
HLD	47	264	1	72
TAP	47	336	2
TAP	48	0	1
TAP	48	0	7
TAP	48	96	0
TAP	48	96	6
BRK	48	240	1
BRK	48	240	6
BRK	48	288	1
BRK	48	288	6
TAP	49	0	7
TAP	49	96	6
TAP	49	192	5
TAP	49	288	4
TAP	50	0	3
TAP	50	96	2
TAP	50	192	0
TAP	50	192	1
TAP	51	0	0
TAP	51	96	1
TAP	51	192	2
TAP	51	288	3
TAP	52	0	4
TAP	52	96	5
TAP	52	192	6
TAP	52	192	7
BRK	53	0	3
BRK	53	0	7
HLD	56	0	7	96
HLD	56	96	0	96
HLD	56	192	2	96
HLD	56	288	3	96
HLD	57	0	0	96
HLD	57	96	7	96
HLD	57	192	5	96
HLD	57	288	4	96
HLD	58	0	7	96
HLD	58	96	0	96
HLD	58	192	2	96
STR	58	288	3
SUR	58	288	3	96	192	4
BRK	59	288	1
BRK	59	288	6
HLD	60	0	3	72
HLD	60	72	4	72
TAP	60	144	5
TAP	60	192	5
TAP	60	288	2
TAP	60	288	7
HLD	61	0	3	72
HLD	61	72	2	72
TAP	61	144	1
TAP	61	192	1
TAP	61	240	2
TAP	61	240	4
TAP	61	336	1
TAP	61	336	3
STR	62	0	0
SI_	62	0	0	96	96	4
STR	62	192	7
SI_	62	192	7	96	96	3
STR	63	0	0
SI_	63	0	0	96	96	4
TAP	63	240	7
TAP	63	288	7
HLD	64	0	4	72
HLD	64	72	3	72
TAP	64	144	2
TAP	64	192	2
TAP	64	288	0
TAP	64	288	5
HLD	65	0	4	72
HLD	65	72	5	72
TAP	65	144	6
TAP	65	192	6
TAP	65	240	2
TAP	65	240	4
TAP	65	336	3
TAP	65	336	5
HLD	66	0	2	72
HLD	66	72	1	72
TAP	66	144	0
HLD	66	192	5	72
HLD	66	264	6	72
TAP	66	336	7
TAP	67	0	0
TAP	67	0	6
TAP	67	96	1
TAP	67	96	7
BRK	67	240	1
BRK	67	240	6
BRK	67	288	1
BRK	67	288	6
HLD	68	0	0	72
HLD	68	72	7	72
TAP	68	144	6
TAP	68	192	6
TAP	68	288	1
TAP	68	288	4
HLD	69	0	0	72
HLD	69	72	1	72
TAP	69	144	2
TAP	69	192	2
TAP	69	240	0
TAP	69	240	6
TAP	69	336	1
TAP	69	336	7
STR	70	0	6
SI_	70	0	6	96	96	1
STR	70	192	2
SUR	70	192	2	96	192	5
TAP	71	240	0
TAP	71	288	0
HLD	72	0	7	72
HLD	72	72	0	72
TAP	72	144	1
TAP	72	192	1
TAP	72	288	3
TAP	72	288	6
HLD	73	0	7	72
HLD	73	72	6	72
TAP	73	144	5
TAP	73	192	5
TAP	73	240	1
TAP	73	240	7
TAP	73	336	0
TAP	73	336	6
HLD	74	0	5	72
HLD	74	72	6	72
TAP	74	144	7
HLD	74	192	2	72
HLD	74	264	1	72
TAP	74	336	0
TAP	75	0	1
TAP	75	0	7
TAP	75	96	0
TAP	75	96	6
BRK	75	240	1
BRK	75	240	6
BRK	75	288	1
BRK	75	288	6
HLD	76	0	7	288
HLD	76	192	0	96
BRK	77	0	1
BRK	77	0	6
TAP	77	240	6
TAP	77	288	7
TAP	77	336	6
TAP	78	48	2
TAP	78	48	4
TAP	78	144	3
TAP	78	144	5
TAP	78	240	0
TAP	78	240	1
TAP	78	336	0
TAP	78	336	1
TAP	79	48	2
TAP	79	48	4
TAP	79	144	3
TAP	79	144	5
TAP	79	240	2
TAP	79	240	4
TAP	79	336	3
TAP	79	336	5
HLD	80	0	6	192
HLD	80	96	7	96
BRK	80	240	0
BRK	80	240	5
BRK	80	288	0
BRK	80	288	5
TAP	81	0	6
TAP	81	48	6
TAP	81	144	2
TAP	81	144	4
TAP	81	240	1
TAP	81	288	0
TAP	81	336	1
TAP	82	48	3
TAP	82	48	5
TAP	82	144	2
TAP	82	144	4
TAP	82	240	6
TAP	82	240	7
TAP	82	336	6
TAP	82	336	7
TAP	83	48	3
TAP	83	48	5
TAP	83	144	2
TAP	83	144	4
TAP	83	240	3
TAP	83	240	5
TAP	83	336	2
TAP	83	336	4
HLD	84	0	1	192
HLD	84	96	0	96
BRK	84	240	2
BRK	84	240	7
BRK	84	288	2
BRK	84	288	7

T_REC_TAP	208
T_REC_BRK	36
T_REC_XTP	0
T_REC_HLD	144
T_REC_XHO	0
T_REC_STR	18
T_REC_BST	0
T_REC_XST	0
T_REC_TTP	0
T_REC_THO	0
T_REC_SLD	18
T_REC_ALL	424
T_NUM_TAP	226
T_NUM_BRK	36
T_NUM_HLD	144
T_NUM_SLD	18
T_NUM_ALL	424
T_JUDGE_TAP	262
T_JUDGE_HLD	304
T_JUDGE_SLD	18
T_JUDGE_ALL	584
TTM_EACHPAIRS	73
TTM_SCR_TAP	113000
TTM_SCR_BRK	93600
TTM_SCR_HLD	144000
TTM_SCR_SLD	27000
TTM_SCR_ALL	377600
TTM_SCR_S	362800
TTM_SCR_SS	374000
TTM_RAT_ACV	10096

