VERSION	0.00.00	1.03.00
FES_MODE	0
BPM_DEF	172.000	172.000	172.000	172.000
MET_DEF	4	4
RESOLUTION	384
CLK_DEF	384
COMPATIBLE_CODE	MA2

BPM	0	0	172.000
MET	0	0	4	4

TAP	5	0	0
TAP	5	192	1
TAP	6	0	2
TAP	6	192	3
TAP	7	0	4
TAP	7	192	5
TAP	8	0	6
TAP	8	192	7
TAP	9	0	0
TAP	9	192	0
TAP	10	0	1
TAP	10	96	1
TAP	10	192	1
TAP	11	0	2
TAP	11	192	2
TAP	12	0	3
TAP	12	96	3
TAP	12	192	3
TAP	13	0	4
TAP	13	192	4
TAP	14	0	5
TAP	14	96	5
TAP	14	192	6
TAP	14	288	6
TAP	15	0	7
TAP	15	96	7
TAP	15	192	7
TAP	16	0	0
TAP	16	96	0
TAP	16	192	0
TAP	16	192	7
TAP	17	0	7
TAP	17	192	7
TAP	18	0	6
TAP	18	96	6
TAP	18	192	6
TAP	19	0	5
TAP	19	192	5
TAP	20	0	4
TAP	20	96	4
TAP	20	192	4
TAP	21	0	3
TAP	21	192	3
TAP	22	0	2
TAP	22	96	2
TAP	22	192	1
TAP	22	288	1
TAP	23	0	0
TAP	23	96	0
TAP	23	192	0
BRK	24	0	0
BRK	24	0	7
HLD	25	0	1	192
TAP	25	192	0
HLD	26	0	6	192
TAP	26	192	7
HLD	27	0	2	192
TAP	27	192	3
HLD	28	0	5	192
TAP	28	192	4
HLD	29	0	1	192
TAP	29	192	0
HLD	30	0	6	192
TAP	30	192	7
HLD	31	0	2	192
TAP	31	192	3
HLD	32	0	5	192
BRK	32	192	4
TAP	33	0	3
TAP	33	96	3
TAP	33	192	3
TAP	34	0	2
TAP	34	96	2
TAP	34	192	2
TAP	35	0	1
TAP	35	96	1
TAP	35	192	0
STR	35	288	0
SI_	35	288	0	96	192	3
TAP	37	0	4
TAP	37	96	4
TAP	37	192	4
TAP	38	0	5
TAP	38	96	5
TAP	38	192	5
TAP	39	0	6
TAP	39	96	6
TAP	39	192	7
STR	39	288	7
SI_	39	288	7	96	192	4
TAP	41	0	2
TAP	41	96	2
TAP	41	192	2
TAP	42	0	3
TAP	42	96	3
TAP	42	192	3
TAP	43	0	4
TAP	43	96	4
TAP	43	192	5
STR	43	288	5
SI_	43	288	5	96	192	2
TAP	45	0	1
TAP	45	96	1
TAP	45	192	1
TAP	46	0	0
TAP	46	96	0
TAP	46	192	0
TAP	47	0	7
TAP	47	96	7
TAP	47	192	6
STR	47	288	6
SI_	47	288	6	96	192	1
TAP	49	0	0
TAP	49	96	1
TAP	49	192	2
TAP	49	288	3
TAP	50	0	4
TAP	50	96	5
TAP	50	192	6
TAP	50	192	7
TAP	51	0	7
TAP	51	96	6
TAP	51	192	5
TAP	51	288	4
TAP	52	0	3
TAP	52	96	2
TAP	52	192	0
TAP	52	192	1
BRK	53	0	0
BRK	53	0	7
TAP	56	0	0
TAP	56	96	0
TAP	56	192	1
TAP	56	288	1
TAP	57	0	2
TAP	57	96	2
TAP	57	192	3
TAP	57	288	3
TAP	58	0	4
TAP	58	96	4
TAP	58	192	5
TAP	58	288	5
TAP	59	0	6
TAP	59	96	6
BRK	59	192	7
TAP	60	0	0
TAP	60	96	1
TAP	60	192	2
TAP	61	0	3
TAP	61	96	2
TAP	61	192	1
TAP	62	0	0
TAP	62	96	1
TAP	62	192	2
STR	62	288	3
SCL	62	288	3	96	192	0
TAP	64	0	7
TAP	64	96	6
TAP	64	192	5
TAP	65	0	4
TAP	65	96	5
TAP	65	192	6
TAP	66	0	7
TAP	66	96	6
TAP	66	192	5
STR	66	288	4
SCR	66	288	4	96	192	7
TAP	68	0	0
TAP	68	96	2
TAP	68	192	1
TAP	69	0	3
TAP	69	96	1
TAP	69	192	2
TAP	70	0	0
TAP	70	96	1
TAP	70	192	2
STR	70	288	3
SUR	70	288	3	96	192	0
TAP	72	0	7
TAP	72	96	5
TAP	72	192	6
TAP	73	0	4
TAP	73	96	6
TAP	73	192	5
TAP	74	0	7
TAP	74	96	6
TAP	74	192	5
STR	74	288	4
SUL	74	288	4	96	192	7
TAP	76	0	0
TAP	76	96	1
TAP	76	192	2
TAP	76	288	3
STR	77	0	4
SUR	77	0	4	96	480	7
TAP	79	0	0
TAP	79	96	1
TAP	79	192	2
TAP	79	288	3
HLD	80	0	4	192
TAP	81	0	2
TAP	81	96	3
TAP	81	192	2
TAP	82	0	5
TAP	82	96	4
TAP	82	192	5
TAP	83	0	3
TAP	83	96	2
TAP	83	192	1
TAP	83	288	0
HLD	84	0	7	192
STR	85	0	0
SCR	85	0	0	96	672	7

T_REC_TAP	177
T_REC_BRK	6
T_REC_XTP	0
T_REC_HLD	10
T_REC_XHO	0
T_REC_STR	10
T_REC_BST	0
T_REC_XST	0
T_REC_TTP	0
T_REC_THO	0
T_REC_SLD	10
T_REC_ALL	213
T_NUM_TAP	187
T_NUM_BRK	6
T_NUM_HLD	10
T_NUM_SLD	10
T_NUM_ALL	213
T_JUDGE_TAP	193
T_JUDGE_HLD	40
T_JUDGE_SLD	10
T_JUDGE_ALL	243
TTM_EACHPAIRS	5
TTM_SCR_TAP	93500
TTM_SCR_BRK	15600
TTM_SCR_HLD	10000
TTM_SCR_SLD	15000
TTM_SCR_ALL	134100
TTM_SCR_S	129500
TTM_SCR_SS	133500
TTM_RAT_ACV	10044

