VERSION	0.00.00	1.03.00
FES_MODE	0
BPM_DEF	172.000	172.000	172.000	172.000
MET_DEF	4	4
RESOLUTION	384
CLK_DEF	384
COMPATIBLE_CODE	MA2

BPM	0	0	172.000
MET	0	0	4	4

TAP	5	0	0
TAP	5	192	0
TAP	6	0	1
TAP	6	192	1
TAP	7	0	2
TAP	7	192	2
TAP	8	0	3
TAP	9	0	3
TAP	9	192	3
TAP	10	0	3
TAP	10	96	3
TAP	10	192	3
TAP	11	0	2
TAP	11	192	2
TAP	12	0	2
TAP	12	96	2
TAP	12	192	2
TAP	13	0	1
TAP	13	192	1
TAP	14	0	1
TAP	14	96	1
TAP	14	192	1
TAP	15	0	0
TAP	15	192	0
TAP	16	0	0
TAP	16	96	0
BRK	16	192	0
TAP	17	0	7
TAP	17	192	7
TAP	18	0	7
TAP	18	96	7
TAP	18	192	7
TAP	19	0	6
TAP	19	192	6
TAP	20	0	6
TAP	20	96	6
TAP	20	192	6
TAP	21	0	5
TAP	21	192	5
TAP	22	0	5
TAP	22	96	5
TAP	22	192	5
TAP	23	0	4
TAP	23	192	4
TAP	24	0	4
TAP	24	96	4
BRK	24	192	4
HLD	25	0	3	192
HLD	26	0	4	192
HLD	27	0	3	192
HLD	28	0	4	192
HLD	29	0	5	192
HLD	30	0	6	192
HLD	31	0	7	192
BRK	32	0	0
TAP	33	0	7
TAP	33	96	7
TAP	33	192	7
TAP	34	0	6
TAP	34	96	6
TAP	34	192	6
TAP	35	0	7
TAP	35	192	6
TAP	36	0	6
TAP	36	0	7
TAP	37	0	4
TAP	37	96	4
TAP	37	192	4
TAP	38	0	5
TAP	38	96	5
TAP	38	192	5
TAP	39	0	4
TAP	39	192	5
TAP	40	0	4
TAP	40	0	5
TAP	41	0	2
TAP	41	96	2
TAP	41	192	2
TAP	42	0	3
TAP	42	96	3
TAP	42	192	3
TAP	43	0	2
TAP	43	192	3
TAP	44	0	2
TAP	44	0	3
TAP	45	0	0
TAP	45	96	0
TAP	45	192	0
TAP	46	0	1
TAP	46	96	1
TAP	46	192	1
TAP	47	0	0
TAP	47	192	1
TAP	48	0	0
TAP	48	0	1
TAP	49	0	0
TAP	49	192	1
TAP	50	0	2
TAP	50	192	3
TAP	51	0	4
TAP	51	192	5
TAP	52	0	6
TAP	52	192	7
BRK	53	0	0
TAP	56	0	1
TAP	56	192	2
TAP	57	0	3
TAP	57	192	4
TAP	58	0	5
TAP	58	192	6
TAP	59	0	0
TAP	59	0	7
TAP	60	0	0
TAP	60	96	0
TAP	60	192	0
TAP	61	0	1
TAP	61	96	1
TAP	61	192	1
TAP	62	0	3
TAP	62	96	3
TAP	62	192	2
TAP	62	288	2
TAP	63	0	2
TAP	63	0	3
TAP	64	0	7
TAP	64	96	7
TAP	64	192	7
TAP	65	0	6
TAP	65	96	6
TAP	65	192	6
TAP	66	0	4
TAP	66	96	4
TAP	66	192	5
TAP	66	288	5
TAP	67	0	4
TAP	67	0	5
TAP	68	0	3
TAP	68	96	3
TAP	68	192	3
TAP	69	0	2
TAP	69	96	2
TAP	69	192	2
TAP	70	0	0
TAP	70	96	0
TAP	70	192	1
TAP	70	288	1
TAP	71	0	0
TAP	71	0	1
TAP	72	0	4
TAP	72	96	4
TAP	72	192	4
TAP	73	0	5
TAP	73	96	5
TAP	73	192	5
TAP	74	0	7
TAP	74	96	7
TAP	74	192	6
TAP	74	288	6
TAP	75	0	6
TAP	75	0	7
STR	76	0	7
SI_	76	0	7	96	480	4
TAP	79	0	3
TAP	79	192	2
TAP	80	0	1
TAP	80	96	1
TAP	80	192	0
TAP	80	192	1
TAP	81	0	7
TAP	81	192	6
TAP	82	0	5
TAP	82	96	5
TAP	82	192	4
TAP	82	192	5
TAP	83	0	2
TAP	83	192	1
TAP	84	0	0
TAP	84	96	0
TAP	84	192	7
TAP	84	288	7
TAP	85	0	0
TAP	85	0	7

T_REC_TAP	169
T_REC_BRK	4
T_REC_XTP	0
T_REC_HLD	7
T_REC_XHO	0
T_REC_STR	1
T_REC_BST	0
T_REC_XST	0
T_REC_TTP	0
T_REC_THO	0
T_REC_SLD	1
T_REC_ALL	182
T_NUM_TAP	170
T_NUM_BRK	4
T_NUM_HLD	7
T_NUM_SLD	1
T_NUM_ALL	182
T_JUDGE_TAP	174
T_JUDGE_HLD	28
T_JUDGE_SLD	1
T_JUDGE_ALL	203
TTM_EACHPAIRS	12
TTM_SCR_TAP	85000
TTM_SCR_BRK	10400
TTM_SCR_HLD	7000
TTM_SCR_SLD	1500
TTM_SCR_ALL	103900
TTM_SCR_S	100400
TTM_SCR_SS	103500
TTM_RAT_ACV	10038

