VERSION	0.00.00	1.03.00
FES_MODE	0
BPM_DEF	200.000	200.000	200.000	200.000
MET_DEF	4	4
RESOLUTION	384
CLK_DEF	384
COMPATIBLE_CODE	MA2

BPM	0	0	200.000
MET	0	0	4	4

TAP	1	0	0
TAP	1	0	6
TAP	1	96	0
TAP	1	96	6
TAP	1	144	5
TAP	1	192	4
TAP	1	192	5
TAP	1	240	4
TAP	1	240	5
TAP	1	336	0
TAP	1	336	6
TAP	2	48	0
TAP	2	48	6
TAP	2	96	6
TAP	2	144	5
TAP	2	192	3
TAP	2	192	4
TAP	2	240	3
TAP	2	240	4
TAP	3	0	1
TAP	3	0	7
TAP	3	96	1
TAP	3	96	7
TAP	3	144	2
TAP	3	192	2
TAP	3	192	3
TAP	3	240	2
TAP	3	240	3
TAP	3	336	1
TAP	3	336	7
TAP	4	48	1
TAP	4	48	7
TAP	4	96	1
TAP	4	144	2
TAP	4	192	3
TAP	4	216	4
TAP	4	240	3
TAP	4	264	4
TAP	4	288	3
TAP	5	0	0
TAP	5	0	6
TAP	5	96	0
TAP	5	96	6
TAP	5	144	5
TAP	5	192	4
TAP	5	192	5
TAP	5	240	4
TAP	5	240	5
TAP	5	336	0
TAP	5	336	6
TAP	6	48	0
TAP	6	48	6
TAP	6	96	6
TAP	6	144	5
TAP	6	192	3
TAP	6	192	4
TAP	6	240	3
TAP	6	240	4
TAP	7	0	1
TAP	7	0	7
TAP	7	96	1
TAP	7	96	7
TAP	7	144	2
TAP	7	192	2
TAP	7	192	3
TAP	7	240	2
TAP	7	240	3
TAP	7	336	1
TAP	7	336	7
TAP	8	48	1
TAP	8	48	7
TAP	8	96	1
TAP	8	144	2
TAP	8	192	7
TAP	8	204	6
TAP	8	216	5
TAP	8	228	4
TAP	8	240	3
TAP	8	252	2
TAP	8	264	1
TAP	8	276	0
BRK	8	288	7
TAP	9	0	3
TAP	9	48	3
TAP	9	96	7
TAP	9	144	0
TAP	9	192	5
TAP	9	240	5
STR	9	288	0
SCR	9	288	0	96	96	4
TAP	9	336	0
STR	10	0	4
SCR	10	0	4	96	96	0
TAP	10	48	4
STR	10	96	0
SCR	10	96	0	96	96	3
TAP	10	144	0
TAP	10	192	4
TAP	10	240	4
TAP	10	288	5
TAP	10	336	5
TAP	11	0	4
TAP	11	48	4
TAP	11	96	0
TAP	11	144	7
TAP	11	192	2
TAP	11	240	2
STR	11	288	7
SCL	11	288	7	96	96	3
TAP	11	336	7
STR	12	0	3
SCL	12	0	3	96	96	7
TAP	12	48	3
STR	12	96	7
SCL	12	96	7	96	96	4
TAP	12	144	7
TAP	12	192	3
TAP	12	240	3
TAP	12	288	2
TAP	12	336	2
TAP	13	0	3
TAP	13	24	4
TAP	13	48	3
TAP	13	72	4
TAP	13	96	3
TAP	13	120	4
TAP	13	144	3
TAP	13	168	4
TAP	13	192	2
TAP	13	216	5
TAP	13	240	2
TAP	13	264	5
TAP	13	288	2
TAP	13	312	5
TAP	13	336	2
TAP	13	360	5
TAP	14	0	1
TAP	14	24	6
TAP	14	48	1
TAP	14	72	6
TAP	14	96	1
TAP	14	120	6
TAP	14	144	1
TAP	14	168	6
TAP	14	192	0
TAP	14	216	7
TAP	14	240	0
TAP	14	264	7
TAP	14	288	0
TAP	14	312	7
TAP	14	336	0
TAP	14	360	7
BST	15	0	0
SUL	15	0	0	96	48	4
SUR	15	0	0	96	48	4
BST	15	96	0
SCL	15	96	0	96	48	5
SCR	15	96	0	96	48	3
BST	15	192	0
SF_	15	192	0	96	48	4
BRK	15	288	0
BRK	16	0	0
TAP	16	24	1
TAP	16	48	2
TAP	16	72	3
BRK	16	96	7
TAP	16	120	6
TAP	16	144	5
TAP	16	168	4
BRK	16	192	0
TAP	16	204	1
TAP	16	216	2
TAP	16	228	3
TAP	16	240	4
TAP	16	252	5
TAP	16	264	6
TAP	16	276	7
BRK	16	288	0
BRK	16	288	4
TAP	17	0	1
TAP	17	0	7
TAP	17	48	0
TAP	17	96	0
TAP	17	96	6
TAP	17	144	7
TAP	17	192	1
TAP	17	192	7
TAP	17	240	1
TAP	17	288	0
TAP	17	288	6
TAP	17	336	6
TAP	18	0	1
TAP	18	0	7
TAP	18	48	2
TAP	18	96	0
TAP	18	96	6
TAP	18	144	5
TAP	18	192	1
TAP	18	192	7
TAP	18	240	3
TAP	18	288	0
TAP	18	288	6
TAP	18	336	4
TAP	19	0	1
TAP	19	24	0
TAP	19	48	1
TAP	19	72	0
TAP	19	96	2
TAP	19	120	7
TAP	19	144	2
TAP	19	168	7
TAP	19	192	3
TAP	19	216	6
TAP	19	240	3
TAP	19	264	6
TAP	19	288	4
TAP	19	312	5
TAP	19	336	4
TAP	19	360	5
STR	20	0	4
SI_	20	0	4	96	48	0
TAP	20	24	5
TAP	20	48	4
BRK	20	72	5
STR	20	192	3
SI_	20	192	3	96	48	7
TAP	20	216	2
TAP	20	240	3
BRK	20	264	2
HLD	21	0	0	144
HLD	21	0	6	48
HLD	21	96	2	144
HLD	21	192	5	144
HLD	21	288	7	144
HLD	22	0	1	144
HLD	22	96	3	144
HLD	22	192	4	144
HLD	22	288	6	96
TAP	23	0	0
TAP	23	24	1
TAP	23	48	2
TAP	23	96	7
TAP	23	120	6
TAP	23	144	5
TAP	23	192	1
TAP	23	216	2
TAP	23	240	3
TAP	23	288	6
TAP	23	312	5
TAP	23	336	4
BST	24	0	2
SUL	24	0	2	96	48	6
BST	24	0	3
SI_	24	0	3	96	48	6
BST	24	192	4
SI_	24	192	4	96	48	1
BST	24	192	5
SUR	24	192	5	96	48	1
STR	25	0	0
SI_	25	0	0	96	48	5
TAP	25	48	4
STR	25	96	0
SI_	25	96	0	96	48	3
TAP	25	144	4
STR	25	192	0
SI_	25	192	0	96	48	5
TAP	25	240	4
STR	25	288	0
SI_	25	288	0	96	48	3
TAP	25	336	4
STR	26	0	0
SI_	26	0	0	96	48	5
TAP	26	48	4
STR	26	96	0
SI_	26	96	0	96	48	3
TAP	26	144	4
STR	26	192	0
SI_	26	192	0	96	48	5
TAP	26	240	4
TAP	26	288	0
TAP	26	336	4
TAP	27	0	3
TAP	27	0	4
TAP	27	48	3
TAP	27	48	4
TAP	27	96	3
TAP	27	96	4
TAP	27	144	3
TAP	27	144	4
BRK	27	192	4
BRK	27	192	5
BRK	27	288	2
BRK	27	288	3
TAP	28	0	2
TAP	28	24	3
TAP	28	48	2
TAP	28	72	3
BRK	28	96	1
TAP	28	192	5
TAP	28	216	4
TAP	28	240	5
TAP	28	264	4
BRK	28	288	6
TAP	29	0	1
TAP	29	24	0
TAP	29	48	1
BRK	29	96	3
BRK	29	96	4
TAP	29	192	6
TAP	29	216	7
TAP	29	240	6
BRK	29	288	3
BRK	29	288	4
TAP	30	0	0
TAP	30	0	1
TAP	30	48	0
TAP	30	48	1
BRK	30	96	3
BRK	30	96	4
BRK	30	192	3
BRK	30	192	4
TAP	30	288	0
TAP	30	288	7
TAP	30	336	0
TAP	30	336	7
BRK	31	0	6
TAP	31	24	5
TAP	31	48	4
TAP	31	72	3
TAP	31	96	2
TAP	31	120	1
TAP	31	144	0
TAP	31	168	7
BRK	31	192	1
TAP	31	216	2
TAP	31	240	3
TAP	31	264	4
TAP	31	288	5
TAP	31	312	6
TAP	31	336	7
TAP	31	360	0
BRK	32	0	4
TAP	32	12	3
TAP	32	24	2
TAP	32	36	1
TAP	32	48	0
TAP	32	60	7
TAP	32	72	6
TAP	32	84	5
BST	32	96	4
SI_	32	96	4	96	48	0
TAP	32	108	3
TAP	32	120	2
TAP	32	132	1
TAP	32	144	0
TAP	32	156	7
TAP	32	168	6
TAP	32	180	5
BRK	32	192	4
TAP	33	0	1
TAP	33	24	0
TAP	33	48	1
TAP	33	96	6
TAP	33	120	7
TAP	33	144	6
TAP	33	192	1
TAP	33	216	0
TAP	33	240	2
TAP	33	288	6
TAP	33	312	7
TAP	33	336	5
TAP	34	0	1
TAP	34	24	3
TAP	34	48	2
TAP	34	96	6
TAP	34	120	4
TAP	34	144	5
BRK	34	192	0
BRK	34	192	1
BRK	34	264	3
BRK	34	264	4
BRK	34	336	6
BRK	34	336	7
TAP	35	0	5
TAP	35	24	4
TAP	35	48	5
TAP	35	96	2
TAP	35	120	3
TAP	35	144	2
TAP	35	192	6
TAP	35	216	4
TAP	35	240	5
TAP	35	288	1
TAP	35	312	3
TAP	35	336	2
TAP	36	0	7
TAP	36	24	4
TAP	36	48	5
TAP	36	96	0
TAP	36	120	3
TAP	36	144	2
TAP	36	192	0
TAP	36	192	7
TAP	36	216	1
TAP	36	216	6
TAP	36	240	2
TAP	36	240	5
BRK	36	288	0
BRK	36	288	7
TAP	37	0	3
TAP	37	0	4
HLD	37	96	2	48
HLD	37	144	1	48
STR	37	192	0
SI_	37	192	0	96	48	4
TAP	37	288	7
HLD	38	0	5	96
TAP	38	96	6
HLD	38	144	6	96
TAP	38	240	7
HLD	38	288	7	96
TAP	39	0	0
TAP	39	96	4
TAP	39	96	5
TAP	39	144	3
TAP	39	144	6
TAP	39	192	2
TAP	39	192	7
TAP	39	288	0
TAP	39	288	5
STR	40	0	1
SXL	40	0	1	96	48	3
TAP	40	96	1
STR	40	144	7
SXR	40	144	7	96	48	5
TAP	40	240	7
TAP	40	288	0
STR	41	0	0
SI_	41	0	0	96	288	4
TAP	43	0	5
TAP	44	0	6
STR	45	0	6
SI_	45	0	6	96	288	2
TAP	47	0	1
TAP	48	0	0
TAP	49	0	0
TAP	49	0	7
TAP	49	48	1
TAP	49	96	0
TAP	49	96	1
TAP	49	144	7
TAP	49	192	0
TAP	49	192	7
TAP	49	240	6
TAP	49	288	6
TAP	49	288	7
TAP	49	336	0
TAP	50	0	0
TAP	50	0	7
TAP	50	48	6
TAP	50	96	0
TAP	50	96	6
TAP	50	144	1
TAP	50	192	1
TAP	50	192	7
TAP	50	240	6
TAP	50	288	1
TAP	50	288	6
TAP	50	336	0
TAP	51	0	7
TAP	51	48	3
TAP	51	96	4
TAP	51	144	0
TAP	51	192	7
TAP	51	240	2
TAP	51	288	6
HLD	51	336	4	96
TAP	52	48	3
TAP	52	96	4
TAP	52	144	5
TAP	52	192	3
TAP	52	216	4
TAP	52	240	3
TAP	52	264	4
TAP	52	288	3
TAP	53	0	0
TAP	53	0	7
TAP	53	48	6
TAP	53	96	6
TAP	53	96	7
TAP	53	144	0
TAP	53	192	0
TAP	53	192	7
TAP	53	240	1
TAP	53	288	0
TAP	53	288	1
TAP	53	336	7
TAP	54	0	0
TAP	54	0	7
TAP	54	48	1
TAP	54	96	1
TAP	54	96	7
TAP	54	144	6
TAP	54	192	0
TAP	54	192	6
TAP	54	240	1
TAP	54	288	1
TAP	54	288	6
TAP	54	336	7
TAP	55	0	0
TAP	55	48	4
TAP	55	96	3
TAP	55	144	7
BRK	55	192	1
BRK	55	192	6
BRK	55	264	2
BRK	55	264	5
BRK	55	336	3
BRK	55	336	4
TAP	56	0	2
TAP	56	0	3
TAP	56	48	2
TAP	56	48	3
TAP	56	96	4
TAP	56	96	5
TAP	56	144	4
TAP	56	144	5
TAP	56	192	3
TAP	56	216	4
TAP	56	240	3
TAP	56	264	4
TAP	56	288	3
TAP	56	312	4
TAP	56	336	3
TAP	56	360	4
STR	57	0	3
SI_	57	0	3	96	48	7
TAP	57	48	3
STR	57	96	4
SI_	57	96	4	96	48	0
TAP	57	144	4
STR	57	192	2
SI_	57	192	2	96	48	7
TAP	57	240	2
STR	57	288	5
SI_	57	288	5	96	48	0
TAP	57	336	5
STR	58	0	3
SI_	58	0	3	96	48	7
TAP	58	48	3
STR	58	96	4
SI_	58	96	4	96	48	0
TAP	58	144	4
STR	58	192	2
SI_	58	192	2	96	48	7
TAP	58	240	2
TAP	58	288	5
TAP	58	336	5
TAP	59	0	6
TAP	59	48	7
TAP	59	96	0
TAP	59	144	1
TAP	59	192	2
TAP	59	192	6
TAP	59	240	5
TAP	59	288	4
HLD	59	336	3	96
TAP	60	48	2
TAP	60	96	3
TAP	60	144	4
TAP	60	192	3
TAP	60	216	4
TAP	60	240	3
TAP	60	264	4
TAP	60	288	3
STR	61	0	4
SI_	61	0	4	96	48	0
TAP	61	48	4
STR	61	96	3
SI_	61	96	3	96	48	7
TAP	61	144	3
STR	61	192	5
SI_	61	192	5	96	48	0
TAP	61	240	5
STR	61	288	2
SI_	61	288	2	96	48	7
TAP	61	336	2
STR	62	0	4
SI_	62	0	4	96	48	0
TAP	62	48	4
STR	62	96	3
SI_	62	96	3	96	48	7
TAP	62	144	3
STR	62	192	5
SI_	62	192	5	96	48	0
TAP	62	240	5
TAP	62	288	2
HLD	62	336	2	96
TAP	63	48	1
TAP	63	96	0
TAP	63	144	7
BRK	63	192	4
BRK	63	192	6
BRK	63	264	1
BRK	63	264	3
BRK	63	336	0
BRK	63	336	7
TAP	64	0	3
TAP	64	0	4
TAP	64	48	3
TAP	64	48	4
TAP	64	96	2
TAP	64	96	5
TAP	64	144	2
TAP	64	144	5
TAP	64	192	0
TAP	64	216	7
TAP	64	240	0
TAP	64	264	7
TAP	64	288	0
TAP	64	312	7
TAP	64	336	0
TAP	64	360	7
STR	65	0	0
SI_	65	0	0	96	48	4
TAP	65	48	0
STR	65	96	1
SI_	65	96	1	96	48	5
TAP	65	144	1
STR	65	192	2
SI_	65	192	2	96	48	6
TAP	65	240	2
STR	65	288	3
SI_	65	288	3	96	48	7
TAP	65	336	3
STR	66	0	4
SI_	66	0	4	96	48	0
TAP	66	48	4
STR	66	96	5
SI_	66	96	5	96	48	1
TAP	66	144	5
STR	66	192	6
SI_	66	192	6	96	48	2
TAP	66	240	6
TAP	66	288	7
HLD	66	336	7	96
TAP	67	48	0
TAP	67	96	1
TAP	67	144	0
TAP	67	192	2
TAP	67	192	7
TAP	67	240	6
TAP	67	288	5
HLD	67	336	4	96
TAP	68	48	3
TAP	68	96	4
TAP	68	144	5
TAP	68	192	3
TAP	68	216	4
TAP	68	240	3
TAP	68	264	4
TAP	68	288	3
STR	69	0	7
SI_	69	0	7	96	48	3
TAP	69	48	7
STR	69	96	6
SI_	69	96	6	96	48	2
TAP	69	144	6
STR	69	192	5
SI_	69	192	5	96	48	1
TAP	69	240	5
STR	69	288	4
SI_	69	288	4	96	48	0
TAP	69	336	4
STR	70	0	3
SI_	70	0	3	96	48	7
TAP	70	48	3
STR	70	96	2
SI_	70	96	2	96	48	6
TAP	70	144	2
STR	70	192	1
SI_	70	192	1	96	48	5
TAP	70	240	1
TAP	70	288	0
HLD	70	336	0	96
TAP	71	48	7
TAP	71	96	0
TAP	71	144	1
BRK	71	192	1
BRK	71	192	3
BRK	71	264	4
BRK	71	264	6
BRK	71	336	0
BRK	71	336	7
TAP	72	0	1
TAP	72	48	1
TAP	72	96	5
TAP	72	144	5
TAP	72	192	3
TAP	72	216	4
TAP	72	240	3
TAP	72	264	4
TAP	72	288	3
TAP	72	312	4
TAP	72	336	3
TAP	72	360	4
STR	73	0	7
SI_	73	0	7	96	48	2
TAP	73	48	7
STR	73	96	3
SI_	73	96	3	96	48	6
TAP	73	144	3
STR	73	192	4
SI_	73	192	4	96	48	1
TAP	73	240	4
STR	73	288	0
SI_	73	288	0	96	48	5
TAP	73	336	0
STR	74	0	7
SI_	74	0	7	96	48	2
TAP	74	48	7
STR	74	96	3
SI_	74	96	3	96	48	6
TAP	74	144	3
STR	74	192	4
SI_	74	192	4	96	48	1
TAP	74	240	4
TAP	74	288	0
STR	74	336	0
SCR	74	336	0	96	48	3
TAP	75	48	7
TAP	75	96	6
TAP	75	144	5
TAP	75	192	3
TAP	75	192	4
TAP	75	240	2
TAP	75	288	1
STR	75	336	4
SCR	75	336	4	96	48	7
TAP	76	48	3
TAP	76	96	2
TAP	76	144	1
TAP	76	192	0
TAP	76	216	7
TAP	76	240	0
TAP	76	264	7
TAP	76	288	0
STR	77	0	0
SI_	77	0	0	96	48	5
TAP	77	0	1
TAP	77	48	0
STR	77	96	4
SI_	77	96	4	96	48	1
TAP	77	144	4
STR	77	192	3
SI_	77	192	3	96	48	6
TAP	77	240	3
STR	77	288	7
SI_	77	288	7	96	48	2
TAP	77	336	7
STR	78	0	0
SI_	78	0	0	96	48	5
TAP	78	48	0
STR	78	96	4
SI_	78	96	4	96	48	1
TAP	78	144	4
STR	78	192	3
SI_	78	192	3	96	48	6
TAP	78	240	3
TAP	78	288	7
HLD	78	336	7	96
TAP	79	48	0
TAP	79	96	1
TAP	79	96	6
TAP	79	144	2
TAP	79	144	5
BRK	79	192	3
BRK	79	192	4
BRK	79	264	0
BRK	79	264	5
BRK	79	336	2
BRK	79	336	7
TAP	80	0	1
TAP	80	48	1
TAP	80	96	6
TAP	80	144	6
TAP	80	192	0
TAP	80	216	7
TAP	80	240	6
TAP	80	264	5
TAP	80	288	4
TAP	80	312	3
TAP	80	336	2
TAP	80	360	1
TAP	81	0	0
STR	81	0	7
SI_	81	0	7	96	48	3
TAP	81	48	6
STR	81	96	0
SI_	81	96	0	96	48	4
TAP	81	96	7
TAP	81	144	1
TAP	81	192	0
STR	81	192	7
SI_	81	192	7	96	48	3
TAP	81	240	6
STR	81	288	0
SI_	81	288	0	96	48	4
TAP	81	288	7
TAP	81	336	1
TAP	82	0	0
STR	82	0	7
SI_	82	0	7	96	48	3
TAP	82	48	6
STR	82	96	0
SI_	82	96	0	96	48	4
TAP	82	96	7
TAP	82	144	1
TAP	82	192	0
STR	82	192	7
SI_	82	192	7	96	48	3
TAP	82	240	6
TAP	82	288	0
TAP	82	288	7
STR	82	336	1
SCR	82	336	1	96	48	4
TAP	83	48	0
TAP	83	96	7
TAP	83	144	6
STR	83	192	5
SCR	83	192	5	96	48	0
TAP	83	240	4
TAP	83	288	3
STR	83	336	2
SCR	83	336	2	96	48	5
TAP	84	48	0
TAP	84	96	7
TAP	84	144	6
TAP	84	192	3
TAP	84	216	4
TAP	84	240	3
TAP	84	264	4
TAP	84	288	3
STR	85	0	0
SI_	85	0	0	96	48	4
BRK	85	0	7
TAP	85	48	1
BRK	85	96	0
STR	85	96	7
SI_	85	96	7	96	48	3
TAP	85	144	6
STR	85	192	0
SI_	85	192	0	96	48	4
BRK	85	192	7
TAP	85	240	1
BRK	85	288	0
STR	85	288	7
SI_	85	288	7	96	48	3
TAP	85	336	6
STR	86	0	0
SI_	86	0	0	96	48	4
BRK	86	0	7
TAP	86	48	1
BRK	86	96	0
STR	86	96	7
SI_	86	96	7	96	48	3
TAP	86	144	6
STR	86	192	0
SI_	86	192	0	96	48	4
BRK	86	192	7
TAP	86	240	1
BRK	86	288	0
TAP	86	288	7
STR	86	336	6
SCL	86	336	6	96	48	3
TAP	87	48	7
TAP	87	96	0
TAP	87	144	1
TAP	87	192	2
TAP	87	240	3
TAP	87	288	4
TAP	87	336	5
TAP	88	0	0
TAP	88	24	7
TAP	88	48	0
TAP	88	72	7
TAP	88	96	1
TAP	88	120	6
TAP	88	144	1
TAP	88	168	6
TAP	88	192	2
TAP	88	204	3
TAP	88	216	4
TAP	88	228	5
TAP	88	240	6
TAP	88	252	7
TAP	88	264	0
TAP	88	276	1
STR	88	288	2
SI_	88	288	2	96	48	5
STR	88	288	6
SI_	88	288	6	96	48	1
BRK	89	0	2
BRK	89	0	6

T_REC_TAP	628
T_REC_BRK	69
T_REC_XTP	0
T_REC_HLD	21
T_REC_XHO	0
T_REC_STR	84
T_REC_BST	8
T_REC_XST	0
T_REC_TTP	0
T_REC_THO	0
T_REC_SLD	94
T_REC_ALL	904
T_NUM_TAP	712
T_NUM_BRK	77
T_NUM_HLD	21
T_NUM_SLD	94
T_NUM_ALL	904
T_JUDGE_TAP	789
T_JUDGE_HLD	46
T_JUDGE_SLD	94
T_JUDGE_ALL	929
TTM_EACHPAIRS	126
TTM_SCR_TAP	356000
TTM_SCR_BRK	200200
TTM_SCR_HLD	21000
TTM_SCR_SLD	141000
TTM_SCR_ALL	718200
TTM_SCR_S	689200
TTM_SCR_SS	710500
TTM_RAT_ACV	10108

