VERSION	0.00.00	1.03.00
FES_MODE	0
BPM_DEF	200.000	200.000	200.000	200.000
MET_DEF	4	4
RESOLUTION	384
CLK_DEF	384
COMPATIBLE_CODE	MA2

BPM	0	0	200.000
MET	0	0	4	4

TAP	1	0	6
TAP	1	0	7
STR	1	96	0
SI_	1	96	0	96	48	4
TAP	1	144	7
TAP	1	192	6
TAP	1	240	5
TAP	1	336	4
TAP	1	336	5
TAP	2	48	3
TAP	2	48	4
TAP	2	96	3
TAP	2	96	4
TAP	2	192	5
TAP	2	192	6
TAP	2	240	6
TAP	2	240	7
TAP	3	0	0
TAP	3	0	1
STR	3	96	7
SI_	3	96	7	96	48	3
TAP	3	144	0
TAP	3	192	1
TAP	3	240	2
TAP	3	336	2
TAP	3	336	3
TAP	4	48	3
TAP	4	48	4
TAP	4	96	3
TAP	4	96	4
TAP	4	192	2
TAP	4	216	3
TAP	4	240	4
TAP	4	264	5
BRK	4	288	1
BRK	4	288	6
TAP	5	0	4
TAP	5	0	5
STR	5	96	3
SI_	5	96	3	96	48	7
TAP	5	144	4
TAP	5	192	5
TAP	5	240	6
TAP	5	336	6
TAP	5	336	7
TAP	6	48	3
TAP	6	48	4
TAP	6	96	3
TAP	6	96	4
TAP	6	192	5
TAP	6	192	6
TAP	6	240	6
TAP	6	240	7
TAP	7	0	2
TAP	7	0	3
STR	7	96	4
SI_	7	96	4	96	48	0
TAP	7	144	3
TAP	7	192	2
TAP	7	240	1
TAP	7	336	0
TAP	7	336	1
TAP	8	48	3
TAP	8	48	4
TAP	8	96	3
TAP	8	96	4
STR	8	192	1
SI_	8	192	1	96	48	6
STR	8	192	2
SI_	8	192	2	96	48	5
TAP	8	288	1
TAP	8	288	2
TAP	9	0	7
TAP	9	48	3
TAP	9	96	5
TAP	9	144	1
TAP	9	192	4
TAP	9	240	2
TAP	9	288	6
STR	9	336	0
SCR	9	336	0	96	96	3
STR	10	48	3
SCR	10	48	3	96	96	6
STR	10	144	6
SCR	10	144	6	96	96	1
STR	10	240	1
SI_	10	240	1	96	48	5
TAP	11	0	6
TAP	11	48	2
TAP	11	96	4
TAP	11	144	0
TAP	11	192	5
TAP	11	240	1
TAP	11	288	3
STR	11	336	7
SCL	11	336	7	96	96	4
STR	12	48	4
SCL	12	48	4	96	96	1
STR	12	144	1
SCL	12	144	1	96	96	6
STR	12	240	6
SI_	12	240	6	96	48	2
TAP	13	0	1
TAP	13	48	3
TAP	13	96	0
TAP	13	144	4
TAP	13	192	7
TAP	13	240	5
TAP	13	288	6
STR	13	336	5
SCL	13	336	5	96	96	2
STR	14	48	2
SCL	14	48	2	96	96	7
STR	14	144	7
SCL	14	144	7	96	96	4
STR	14	240	4
SI_	14	240	4	96	48	0
STR	15	0	1
SI_	15	0	1	96	48	5
TAP	15	96	1
STR	15	96	7
SI_	15	96	7	96	48	3
STR	15	192	2
SI_	15	192	2	96	48	6
TAP	15	192	7
TAP	15	288	2
STR	15	288	4
SI_	15	288	4	96	48	0
STR	16	0	3
SI_	16	0	3	96	48	7
TAP	16	0	4
TAP	16	96	3
STR	16	96	6
SI_	16	96	6	96	48	2
STR	16	192	0
SI_	16	192	0	96	48	3
TAP	16	192	6
BRK	16	288	0
TAP	17	0	4
TAP	17	0	6
TAP	17	48	5
TAP	17	96	5
TAP	17	144	5
TAP	17	192	1
TAP	17	192	3
TAP	17	240	2
TAP	17	288	2
TAP	17	336	2
TAP	18	0	3
TAP	18	0	4
TAP	18	48	5
TAP	18	96	5
TAP	18	144	5
TAP	18	192	3
TAP	18	192	4
TAP	18	240	2
TAP	18	288	2
TAP	18	336	2
TAP	19	0	0
TAP	19	0	1
TAP	19	48	1
TAP	19	96	1
TAP	19	96	7
TAP	19	144	1
TAP	19	192	1
TAP	19	192	6
TAP	19	240	1
TAP	19	288	1
TAP	19	288	5
TAP	19	336	1
STR	20	0	1
SUR	20	0	1	96	48	6
BRK	20	96	1
STR	20	192	5
SUR	20	192	5	96	48	2
BRK	20	288	5
HLD	21	0	0	96
STR	21	0	3
SI_	21	0	3	96	48	7
STR	21	192	4
SI_	21	192	4	96	48	0
HLD	21	192	7	96
HLD	22	0	0	96
STR	22	0	2
SI_	22	0	2	96	48	7
STR	22	192	5
SI_	22	192	5	96	48	0
HLD	22	192	7	96
TAP	23	0	6
TAP	23	24	7
TAP	23	48	6
TAP	23	96	1
TAP	23	120	0
TAP	23	144	1
TAP	23	192	6
TAP	23	216	7
TAP	23	240	6
TAP	23	288	1
TAP	23	312	0
TAP	23	336	1
STR	24	0	0
SCR	24	0	0	96	48	3
STR	24	0	7
SCL	24	0	7	96	48	4
STR	24	192	3
SI_	24	192	3	96	48	6
STR	24	192	4
SI_	24	192	4	96	48	1
HLD	25	0	1	48
TAP	25	48	0
HLD	25	96	6	48
TAP	25	144	7
HLD	25	192	0	48
TAP	25	240	1
HLD	25	288	7	48
TAP	25	336	6
HLD	26	0	2	48
TAP	26	48	3
HLD	26	96	5	48
TAP	26	144	4
HLD	26	192	3	48
TAP	26	240	2
HLD	26	288	4	48
TAP	26	336	5
TAP	27	0	3
TAP	27	0	4
TAP	27	48	3
TAP	27	48	4
TAP	27	96	3
TAP	27	96	4
TAP	27	144	3
TAP	27	144	4
TAP	27	192	4
TAP	27	192	5
TAP	27	288	2
TAP	27	288	3
STR	28	0	3
SI_	28	0	3	96	48	6
STR	28	0	7
SI_	28	0	7	96	48	2
STR	28	192	0
SI_	28	192	0	96	48	5
STR	28	192	4
SI_	28	192	4	96	48	1
TAP	29	0	0
TAP	29	48	0
TAP	29	96	1
TAP	29	96	7
TAP	29	192	7
TAP	29	240	7
TAP	29	288	0
TAP	29	288	6
TAP	30	0	2
TAP	30	0	5
TAP	30	48	1
TAP	30	48	6
TAP	30	96	0
TAP	30	96	7
TAP	30	192	0
TAP	30	192	7
TAP	30	216	1
TAP	30	216	6
TAP	30	240	2
TAP	30	240	5
TAP	30	288	3
TAP	30	288	4
TAP	31	0	2
TAP	31	24	3
TAP	31	48	2
TAP	31	96	5
TAP	31	120	4
TAP	31	144	5
TAP	31	192	3
TAP	31	216	2
TAP	31	240	1
TAP	31	264	0
TAP	31	288	7
TAP	31	312	6
TAP	31	336	5
TAP	31	360	4
TAP	32	0	0
TAP	32	24	1
TAP	32	48	2
TAP	32	72	3
TAP	32	96	4
TAP	32	120	5
TAP	32	144	6
TAP	32	168	7
STR	32	192	0
SCR	32	192	0	96	48	3
STR	32	240	4
SCR	32	240	4	96	48	7
TAP	33	0	1
TAP	33	48	3
TAP	33	96	1
TAP	33	144	4
TAP	33	192	1
TAP	33	240	5
TAP	33	288	1
TAP	33	336	6
TAP	34	0	3
TAP	34	24	4
TAP	34	48	3
TAP	34	72	4
TAP	34	96	2
TAP	34	120	5
TAP	34	144	2
TAP	34	192	1
TAP	34	192	6
TAP	34	264	2
TAP	34	264	5
BRK	34	336	0
BRK	34	336	7
TAP	35	0	6
TAP	35	48	4
TAP	35	96	6
TAP	35	144	3
TAP	35	192	6
TAP	35	240	2
TAP	35	288	6
TAP	35	336	1
TAP	36	0	0
TAP	36	24	7
TAP	36	48	0
TAP	36	72	7
TAP	36	96	1
TAP	36	120	6
TAP	36	144	1
STR	36	192	2
SI_	36	192	2	96	48	7
STR	36	192	5
SI_	36	192	5	96	48	2
BRK	36	288	2
BRK	36	288	5
STR	37	0	0
SCR	37	0	0	96	48	3
TAP	37	48	4
STR	37	96	0
SCL	37	96	0	96	48	5
TAP	37	288	3
TAP	37	288	7
TAP	38	0	5
HLD	38	0	6	240
TAP	38	96	2
STR	38	144	1
SI_	38	144	1	96	48	5
TAP	38	240	1
TAP	39	0	5
TAP	39	0	6
TAP	39	96	4
TAP	39	96	5
TAP	39	144	3
TAP	39	144	4
TAP	39	192	2
TAP	39	192	3
TAP	39	288	1
TAP	39	288	2
HLD	40	0	1	240
TAP	40	0	2
TAP	40	96	5
STR	40	144	6
SI_	40	144	6	96	48	2
TAP	40	240	6
STR	41	0	0
SI_	41	0	0	96	288	4
TAP	43	0	5
TAP	44	0	6
STR	45	0	6
SI_	45	0	6	96	288	2
TAP	47	0	1
TAP	48	0	0
STR	49	0	0
SI_	49	0	0	96	48	4
STR	49	96	6
SI_	49	96	6	96	48	2
STR	49	192	3
SI_	49	192	3	96	48	7
STR	49	288	5
SI_	49	288	5	96	48	1
STR	50	0	2
SI_	50	0	2	96	48	6
STR	50	96	4
SI_	50	96	4	96	48	0
STR	50	192	1
SI_	50	192	1	96	48	5
TAP	51	0	6
TAP	51	48	5
TAP	51	96	4
TAP	51	96	7
TAP	51	192	2
TAP	51	240	1
TAP	51	288	0
TAP	51	288	3
TAP	52	0	2
TAP	52	48	5
TAP	52	96	3
TAP	52	144	4
TAP	52	192	1
TAP	52	192	6
STR	53	0	7
SI_	53	0	7	96	48	3
STR	53	96	1
SI_	53	96	1	96	48	5
STR	53	192	4
SI_	53	192	4	96	48	0
STR	53	288	2
SI_	53	288	2	96	48	6
STR	54	0	5
SI_	54	0	5	96	48	1
STR	54	96	3
SI_	54	96	3	96	48	7
STR	54	192	6
SI_	54	192	6	96	48	2
TAP	55	0	0
TAP	55	0	1
TAP	55	48	1
TAP	55	96	1
TAP	55	96	7
TAP	55	144	1
HLD	55	192	1	144
TAP	55	192	6
TAP	55	264	5
TAP	55	336	4
TAP	56	0	2
TAP	56	0	3
TAP	56	96	4
TAP	56	96	5
BRK	56	192	0
BRK	56	192	1
BRK	56	288	6
BRK	56	288	7
STR	57	0	0
SI_	57	0	0	96	48	4
TAP	57	96	0
STR	57	96	6
SI_	57	96	6	96	48	2
STR	57	192	3
SI_	57	192	3	96	48	7
TAP	57	192	6
TAP	57	288	3
STR	57	288	5
SI_	57	288	5	96	48	1
STR	58	0	2
SI_	58	0	2	96	48	6
TAP	58	0	5
TAP	58	96	2
STR	58	96	4
SI_	58	96	4	96	48	0
STR	58	192	1
SI_	58	192	1	96	48	5
TAP	58	192	4
TAP	58	288	1
TAP	59	0	6
TAP	59	48	7
TAP	59	96	0
TAP	59	144	1
TAP	59	192	2
TAP	59	240	3
TAP	59	288	0
TAP	59	288	4
TAP	60	0	3
TAP	60	0	7
TAP	60	48	2
TAP	60	48	6
TAP	60	96	1
TAP	60	96	5
TAP	60	144	0
TAP	60	144	4
STR	60	192	3
SCR	60	192	3	96	48	6
STR	60	192	7
SCR	60	192	7	96	48	2
STR	61	0	7
SI_	61	0	7	96	48	3
STR	61	96	1
SI_	61	96	1	96	48	5
TAP	61	96	7
TAP	61	192	1
STR	61	192	4
SI_	61	192	4	96	48	0
STR	61	288	2
SI_	61	288	2	96	48	6
TAP	61	288	4
TAP	62	0	2
TAP	62	96	0
TAP	62	96	7
TAP	62	144	1
TAP	62	144	6
TAP	62	192	2
TAP	62	192	5
STR	62	336	3
SCL	62	336	3	96	144	5
STR	63	144	4
SI_	63	144	4	96	48	0
HLD	63	192	4	144
TAP	63	336	7
TAP	64	0	6
TAP	64	0	7
TAP	64	96	0
TAP	64	96	1
BRK	64	192	4
BRK	64	192	5
BRK	64	288	2
BRK	64	288	3
STR	65	0	0
SI_	65	0	0	96	48	4
TAP	65	96	0
STR	65	96	6
SI_	65	96	6	96	48	2
STR	65	192	3
SI_	65	192	3	96	48	7
TAP	65	192	6
TAP	65	288	3
STR	65	288	5
SI_	65	288	5	96	48	1
TAP	66	0	5
TAP	66	96	2
TAP	66	144	1
TAP	66	192	0
TAP	66	192	3
HLD	66	336	5	144
TAP	67	48	6
TAP	67	96	7
HLD	67	192	1	96
TAP	67	240	2
TAP	67	288	3
TAP	68	0	0
TAP	68	0	4
TAP	68	48	1
TAP	68	48	5
TAP	68	96	2
TAP	68	96	6
TAP	68	144	3
TAP	68	144	7
STR	68	192	0
SCL	68	192	0	96	48	5
STR	68	192	4
SCL	68	192	4	96	48	1
STR	69	0	7
SI_	69	0	7	96	48	3
STR	69	96	1
SI_	69	96	1	96	48	5
TAP	69	96	7
TAP	69	192	1
STR	69	192	4
SI_	69	192	4	96	48	0
STR	69	288	2
SI_	69	288	2	96	48	6
TAP	69	288	4
TAP	70	0	2
TAP	70	96	5
TAP	70	144	6
TAP	70	192	4
TAP	70	192	7
STR	70	336	4
SCR	70	336	4	96	144	2
STR	71	144	3
SI_	71	144	3	96	48	7
HLD	71	192	3	144
TAP	71	336	0
STR	72	0	1
SUL	72	0	1	96	48	3
STR	72	192	5
SUL	72	192	5	96	48	7
STR	73	0	0
SI_	73	0	0	96	48	4
TAP	73	48	0
STR	73	96	6
SI_	73	96	6	96	48	2
TAP	73	144	6
STR	73	192	3
SI_	73	192	3	96	48	7
TAP	73	240	3
STR	73	288	5
SI_	73	288	5	96	48	1
TAP	73	336	5
STR	74	0	2
SI_	74	0	2	96	48	6
TAP	74	48	2
STR	74	96	4
SI_	74	96	4	96	48	0
TAP	74	144	4
STR	74	192	1
SI_	74	192	1	96	48	5
TAP	74	240	1
TAP	75	0	6
TAP	75	48	3
TAP	75	96	6
TAP	75	144	1
TAP	75	144	5
TAP	75	192	2
TAP	75	240	7
TAP	75	288	2
TAP	75	336	3
TAP	75	336	4
TAP	76	0	5
TAP	76	48	0
TAP	76	96	5
TAP	76	144	2
TAP	76	144	6
TAP	76	192	5
TAP	76	216	4
TAP	76	240	3
TAP	76	264	2
BRK	76	288	1
BRK	76	288	6
STR	77	0	7
SI_	77	0	7	96	48	3
TAP	77	48	7
STR	77	96	1
SI_	77	96	1	96	48	5
TAP	77	144	1
STR	77	192	4
SI_	77	192	4	96	48	0
TAP	77	240	4
STR	77	288	2
SI_	77	288	2	96	48	6
TAP	77	336	2
STR	78	0	5
SI_	78	0	5	96	48	1
TAP	78	48	5
STR	78	96	3
SI_	78	96	3	96	48	7
TAP	78	144	3
STR	78	192	6
SI_	78	192	6	96	48	2
TAP	78	240	6
TAP	79	0	1
TAP	79	48	0
TAP	79	96	1
TAP	79	144	2
TAP	79	144	6
TAP	79	192	5
TAP	79	240	4
TAP	79	288	5
TAP	79	336	3
TAP	79	336	4
TAP	80	0	2
TAP	80	48	3
TAP	80	96	2
TAP	80	144	1
TAP	80	144	5
STR	80	192	2
SV_	80	192	2	96	48	0
STR	80	192	6
SV_	80	192	6	96	48	4
TAP	81	0	1
TAP	81	48	2
TAP	81	48	7
TAP	81	96	6
TAP	81	144	1
TAP	81	144	5
TAP	81	192	6
TAP	81	240	3
TAP	81	240	5
TAP	81	288	2
TAP	81	336	3
TAP	81	336	4
TAP	82	0	5
TAP	82	48	0
TAP	82	48	6
TAP	82	96	1
TAP	82	144	2
TAP	82	144	5
TAP	82	192	4
TAP	82	240	0
TAP	82	240	5
TAP	82	288	1
TAP	82	336	2
TAP	82	336	7
TAP	83	0	6
TAP	83	48	3
TAP	83	48	7
TAP	83	96	2
TAP	83	144	1
TAP	83	144	6
TAP	83	192	2
TAP	83	240	3
TAP	83	240	6
TAP	83	288	5
TAP	83	336	3
TAP	83	336	4
TAP	84	0	2
TAP	84	48	1
TAP	84	48	7
TAP	84	96	6
TAP	84	144	2
TAP	84	144	5
TAP	84	192	3
TAP	84	192	4
TAP	84	216	2
TAP	84	216	5
TAP	84	240	1
TAP	84	240	6
TAP	84	264	0
TAP	84	264	7
BRK	84	288	1
BRK	84	288	6
TAP	85	0	0
TAP	85	0	7
TAP	85	48	1
TAP	85	48	5
TAP	85	96	3
TAP	85	96	6
TAP	85	144	2
TAP	85	144	4
TAP	85	192	0
TAP	85	192	5
TAP	85	240	1
TAP	85	240	7
TAP	85	288	3
TAP	85	288	6
TAP	85	336	2
TAP	85	336	5
TAP	86	0	0
TAP	86	0	7
TAP	86	48	2
TAP	86	48	6
TAP	86	96	1
TAP	86	96	4
TAP	86	144	3
TAP	86	144	5
TAP	86	192	2
TAP	86	192	7
TAP	86	240	0
TAP	86	240	6
TAP	86	288	1
TAP	86	288	4
TAP	86	336	3
TAP	86	336	5
HLD	87	0	4	96
HLD	87	0	6	96
HLD	87	192	1	96
HLD	87	192	3	96
STR	87	336	0
SI_	87	336	0	96	96	3
STR	87	336	4
SI_	87	336	4	96	96	7
BRK	88	48	0
BRK	88	48	4
TAP	88	192	2
TAP	88	192	6
TAP	88	216	1
TAP	88	216	5
TAP	88	240	0
TAP	88	240	4
TAP	88	264	3
TAP	88	264	7
TAP	88	288	2
TAP	88	288	6
BRK	89	0	0
BRK	89	0	7

T_REC_TAP	484
T_REC_BRK	25
T_REC_XTP	0
T_REC_HLD	23
T_REC_XHO	0
T_REC_STR	110
T_REC_BST	0
T_REC_XST	0
T_REC_TTP	0
T_REC_THO	0
T_REC_SLD	110
T_REC_ALL	752
T_NUM_TAP	594
T_NUM_BRK	25
T_NUM_HLD	23
T_NUM_SLD	110
T_NUM_ALL	752
T_JUDGE_TAP	619
T_JUDGE_HLD	48
T_JUDGE_SLD	110
T_JUDGE_ALL	777
TTM_EACHPAIRS	171
TTM_SCR_TAP	297000
TTM_SCR_BRK	65000
TTM_SCR_HLD	23000
TTM_SCR_SLD	165000
TTM_SCR_ALL	550000
TTM_SCR_S	531100
TTM_SCR_SS	547500
TTM_RAT_ACV	10045

