VERSION	0.00.00	1.03.00
FES_MODE	0
BPM_DEF	200.000	200.000	200.000	200.000
MET_DEF	4	4
RESOLUTION	384
CLK_DEF	384
COMPATIBLE_CODE	MA2

BPM	0	0	200.000
MET	0	0	4	4

TAP	1	0	4
TAP	1	96	4
TAP	1	192	4
TAP	1	192	5
TAP	2	0	3
TAP	2	96	3
TAP	2	192	2
TAP	2	240	2
TAP	2	240	3
TAP	3	0	3
TAP	3	96	3
TAP	3	192	2
TAP	3	192	3
TAP	4	0	4
TAP	4	96	4
TAP	4	192	5
TAP	4	240	4
TAP	4	288	4
TAP	4	288	5
TAP	5	0	3
TAP	5	96	3
TAP	5	192	2
TAP	5	192	3
TAP	6	0	4
TAP	6	96	4
TAP	6	192	5
TAP	6	240	4
TAP	6	240	5
TAP	7	0	4
TAP	7	96	4
TAP	7	192	4
TAP	7	192	5
TAP	8	0	3
TAP	8	96	3
TAP	8	192	2
TAP	8	240	3
TAP	8	288	2
TAP	8	288	3
TAP	9	0	6
TAP	9	96	4
TAP	9	192	5
TAP	9	240	4
TAP	9	240	5
TAP	10	0	1
TAP	10	96	3
TAP	10	192	2
TAP	10	240	2
TAP	10	240	3
TAP	11	0	5
TAP	11	96	7
TAP	11	192	6
TAP	11	240	5
TAP	11	240	6
TAP	12	0	2
TAP	12	96	0
TAP	12	192	1
TAP	12	240	2
TAP	12	288	1
TAP	12	288	2
TAP	13	0	6
TAP	13	96	7
TAP	13	192	6
TAP	13	240	6
TAP	13	240	7
TAP	14	0	1
TAP	14	96	0
TAP	14	192	1
TAP	14	240	0
TAP	14	240	1
HLD	15	0	2	96
HLD	15	96	3	96
HLD	15	192	4	96
HLD	15	288	5	96
HLD	16	0	6	96
HLD	16	96	7	96
STR	16	192	0
SI_	16	192	0	96	48	4
TAP	17	0	0
TAP	17	0	1
TAP	17	96	6
TAP	17	96	7
TAP	17	192	0
TAP	17	192	1
TAP	17	288	6
TAP	17	288	7
TAP	18	0	0
TAP	18	0	1
TAP	18	96	6
TAP	18	96	7
TAP	18	192	0
TAP	18	192	1
TAP	18	288	6
TAP	18	288	7
TAP	19	0	1
TAP	19	0	6
TAP	19	96	2
TAP	19	96	7
TAP	19	192	1
TAP	19	192	6
TAP	19	288	0
TAP	19	288	5
HLD	20	0	1	96
HLD	20	0	6	96
BRK	20	192	1
BRK	20	192	6
TAP	21	0	3
TAP	21	0	4
TAP	21	96	4
TAP	21	96	5
TAP	21	192	3
TAP	21	192	4
TAP	21	288	2
TAP	21	288	3
TAP	22	0	3
TAP	22	0	4
TAP	22	96	4
TAP	22	96	5
TAP	22	192	3
TAP	22	192	4
TAP	22	288	2
TAP	22	288	3
TAP	23	0	0
TAP	23	0	1
TAP	23	96	6
TAP	23	96	7
TAP	23	192	0
TAP	23	192	1
TAP	23	288	6
TAP	23	288	7
HLD	24	0	1	96
HLD	24	0	7	96
HLD	24	192	0	96
HLD	24	192	6	96
TAP	25	0	0
TAP	25	0	7
TAP	25	96	6
TAP	25	96	7
TAP	25	192	0
TAP	25	192	7
TAP	25	288	0
TAP	25	288	1
TAP	26	0	0
TAP	26	0	7
TAP	26	96	6
TAP	26	96	7
TAP	26	192	0
TAP	26	192	7
TAP	26	288	0
TAP	26	288	1
TAP	27	0	3
TAP	27	0	4
TAP	27	48	3
TAP	27	48	4
TAP	27	96	3
TAP	27	96	4
TAP	27	192	3
TAP	27	192	5
TAP	27	288	2
TAP	27	288	4
HLD	28	0	3	96
HLD	28	0	4	96
HLD	28	192	1	96
HLD	28	192	6	96
TAP	29	0	3
TAP	29	0	4
TAP	29	96	0
TAP	29	96	1
TAP	29	192	3
TAP	29	192	4
TAP	29	288	6
TAP	29	288	7
TAP	30	0	3
TAP	30	0	4
TAP	30	96	1
TAP	30	96	7
TAP	30	192	0
TAP	30	192	6
TAP	30	288	1
TAP	30	288	7
TAP	31	0	2
TAP	31	0	3
TAP	31	96	4
TAP	31	96	5
TAP	31	192	3
TAP	31	192	4
TAP	31	240	3
TAP	31	240	4
TAP	31	288	3
TAP	31	288	4
TAP	32	0	1
TAP	32	0	6
TAP	32	96	2
TAP	32	96	5
BRK	32	192	0
BRK	32	192	7
HLD	33	0	2	96
HLD	33	96	1	96
HLD	33	192	0	96
HLD	33	288	7	96
HLD	34	0	6	96
TAP	34	96	5
TAP	34	192	4
TAP	34	192	5
TAP	34	264	4
TAP	34	264	5
TAP	34	336	4
TAP	34	336	5
HLD	35	0	5	96
HLD	35	96	6	96
HLD	35	192	7	96
HLD	35	288	0	96
HLD	36	0	1	96
TAP	36	96	2
TAP	36	192	2
TAP	36	192	3
BRK	36	288	0
BRK	36	288	5
HLD	37	0	6	96
HLD	37	96	5	96
HLD	37	192	4	96
HLD	37	288	3	96
HLD	38	0	1	144
HLD	38	144	3	144
TAP	38	288	4
HLD	39	0	6	96
HLD	39	96	7	96
HLD	39	192	0	96
HLD	39	288	1	96
HLD	40	0	2	144
HLD	40	144	0	144
BRK	40	288	7
STR	41	0	0
SI_	41	0	0	96	288	4
TAP	43	0	5
TAP	44	0	6
STR	45	0	6
SI_	45	0	6	96	288	2
TAP	47	0	1
TAP	48	0	0
TAP	49	0	0
TAP	49	0	1
TAP	49	96	6
TAP	49	96	7
TAP	49	192	0
TAP	49	192	1
TAP	49	288	6
TAP	49	288	7
TAP	50	0	0
TAP	50	0	1
TAP	50	96	6
TAP	50	96	7
TAP	50	192	0
TAP	50	192	1
TAP	50	288	6
TAP	50	288	7
HLD	51	0	4	96
HLD	51	96	3	96
HLD	51	192	2	96
HLD	51	288	3	96
HLD	52	0	4	96
STR	52	96	5
SCL	52	96	5	96	96	2
TAP	53	0	0
TAP	53	0	1
TAP	53	96	4
TAP	53	96	5
TAP	53	192	0
TAP	53	192	1
TAP	53	288	4
TAP	53	288	5
TAP	54	0	6
TAP	54	0	7
TAP	54	96	2
TAP	54	96	3
TAP	54	192	6
TAP	54	192	7
TAP	54	288	2
TAP	54	288	3
STR	55	0	0
SI_	55	0	0	96	48	4
STR	55	0	1
SI_	55	0	1	96	48	3
STR	55	192	6
SI_	55	192	6	96	48	4
STR	55	192	7
SI_	55	192	7	96	48	3
BRK	56	0	0
BRK	56	0	7
TAP	57	0	4
TAP	57	0	5
TAP	57	96	2
TAP	57	96	3
TAP	57	192	3
TAP	57	192	5
TAP	57	288	2
TAP	57	288	4
TAP	58	0	3
TAP	58	0	6
TAP	58	96	1
TAP	58	96	4
TAP	58	192	2
TAP	58	192	7
TAP	58	288	0
TAP	58	288	5
HLD	59	0	7	96
HLD	59	96	1	96
HLD	59	192	3	96
HLD	59	288	5	96
HLD	60	0	7	96
STR	60	96	1
SCL	60	96	1	96	96	6
TAP	61	0	6
TAP	61	0	7
TAP	61	96	0
TAP	61	96	5
TAP	61	192	1
TAP	61	192	4
TAP	61	288	2
TAP	61	288	3
TAP	62	0	0
TAP	62	0	1
TAP	62	96	2
TAP	62	96	7
TAP	62	192	3
TAP	62	192	6
TAP	62	288	4
TAP	62	288	5
STR	63	0	6
SI_	63	0	6	96	48	3
STR	63	0	7
SI_	63	0	7	96	48	3
STR	63	192	0
SI_	63	192	0	96	48	4
STR	63	192	1
SI_	63	192	1	96	48	4
BRK	64	0	2
BRK	64	0	5
TAP	65	0	3
TAP	65	0	5
TAP	65	96	4
TAP	65	96	7
TAP	65	192	3
TAP	65	192	5
TAP	65	288	2
TAP	65	288	3
TAP	66	0	3
TAP	66	0	5
TAP	66	96	4
TAP	66	96	7
TAP	66	192	3
TAP	66	192	5
TAP	66	288	2
TAP	66	288	3
TAP	67	0	4
TAP	67	0	5
TAP	67	96	3
TAP	67	96	4
TAP	67	192	2
TAP	67	192	3
TAP	67	288	3
TAP	67	288	4
TAP	68	0	4
TAP	68	0	5
TAP	68	96	3
TAP	68	96	4
TAP	68	192	1
TAP	68	192	6
TAP	69	0	2
TAP	69	0	4
TAP	69	96	0
TAP	69	96	3
TAP	69	192	2
TAP	69	192	4
TAP	69	288	4
TAP	69	288	5
TAP	70	0	2
TAP	70	0	4
TAP	70	96	0
TAP	70	96	3
TAP	70	192	2
TAP	70	192	4
TAP	70	288	4
TAP	70	288	5
TAP	71	0	1
TAP	71	0	6
TAP	71	96	4
TAP	71	96	7
TAP	71	192	2
TAP	71	192	5
TAP	71	288	0
TAP	71	288	3
HLD	72	0	1	192
HLD	72	0	6	192
TAP	73	0	6
TAP	73	0	7
TAP	73	96	0
TAP	73	96	5
TAP	73	192	2
TAP	73	192	3
TAP	73	240	2
TAP	73	240	3
TAP	73	336	0
TAP	73	336	1
TAP	74	48	2
TAP	74	48	7
TAP	74	96	2
TAP	74	96	7
TAP	74	192	4
TAP	74	192	5
TAP	74	240	4
TAP	74	240	5
TAP	75	0	0
TAP	75	0	1
TAP	75	96	2
TAP	75	96	7
TAP	75	192	4
TAP	75	192	5
TAP	75	240	4
TAP	75	240	5
TAP	75	336	6
TAP	75	336	7
TAP	76	48	0
TAP	76	48	5
TAP	76	96	0
TAP	76	96	5
TAP	76	192	2
TAP	76	192	3
TAP	76	240	2
TAP	76	240	3
TAP	76	288	2
TAP	76	288	3
TAP	77	0	0
TAP	77	0	1
TAP	77	96	2
TAP	77	96	7
TAP	77	192	4
TAP	77	192	5
TAP	77	240	4
TAP	77	240	5
TAP	77	336	6
TAP	77	336	7
TAP	78	48	0
TAP	78	48	5
TAP	78	96	0
TAP	78	96	5
TAP	78	192	2
TAP	78	192	3
TAP	78	240	2
TAP	78	240	3
TAP	79	0	6
TAP	79	0	7
TAP	79	96	0
TAP	79	96	5
TAP	79	192	2
TAP	79	192	3
TAP	79	240	2
TAP	79	240	3
TAP	79	336	0
TAP	79	336	1
TAP	80	48	2
TAP	80	48	7
TAP	80	96	2
TAP	80	96	7
TAP	80	192	4
TAP	80	192	5
TAP	80	240	4
TAP	80	240	5
TAP	80	288	4
TAP	80	288	5
TAP	81	0	0
TAP	81	0	1
STR	81	96	5
SI_	81	96	5	96	48	3
STR	81	96	6
SI_	81	96	6	96	48	3
TAP	81	336	6
TAP	81	336	7
TAP	82	48	1
TAP	82	48	2
STR	82	96	1
SI_	82	96	1	96	48	4
STR	82	96	2
SI_	82	96	2	96	48	4
TAP	83	0	2
TAP	83	0	3
STR	83	96	5
SI_	83	96	5	96	48	0
STR	83	96	6
SI_	83	96	6	96	48	0
TAP	83	336	4
TAP	83	336	5
TAP	84	48	1
TAP	84	48	2
STR	84	96	1
SI_	84	96	1	96	48	7
STR	84	96	2
SI_	84	96	2	96	48	7
TAP	85	0	2
TAP	85	0	3
STR	85	96	0
SI_	85	96	0	96	48	6
STR	85	96	1
SI_	85	96	1	96	48	6
TAP	85	336	2
TAP	85	336	3
TAP	86	48	4
TAP	86	48	5
STR	86	96	4
SI_	86	96	4	96	48	2
STR	86	96	5
SI_	86	96	5	96	48	2
TAP	87	0	0
TAP	87	0	1
TAP	87	96	4
TAP	87	96	5
TAP	87	192	6
TAP	87	192	7
TAP	87	288	2
TAP	87	288	3
TAP	88	0	4
TAP	88	0	5
TAP	88	96	2
TAP	88	96	3
STR	88	192	3
SI_	88	192	3	96	48	1
STR	88	192	4
SI_	88	192	4	96	48	6
BRK	89	0	0
BRK	89	0	7

T_REC_TAP	412
T_REC_BRK	13
T_REC_XTP	0
T_REC_HLD	50
T_REC_XHO	0
T_REC_STR	27
T_REC_BST	0
T_REC_XST	0
T_REC_TTP	0
T_REC_THO	0
T_REC_SLD	27
T_REC_ALL	529
T_NUM_TAP	439
T_NUM_BRK	13
T_NUM_HLD	50
T_NUM_SLD	27
T_NUM_ALL	529
T_JUDGE_TAP	452
T_JUDGE_HLD	108
T_JUDGE_SLD	27
T_JUDGE_ALL	587
TTM_EACHPAIRS	205
TTM_SCR_TAP	219500
TTM_SCR_BRK	33800
TTM_SCR_HLD	50000
TTM_SCR_SLD	40500
TTM_SCR_ALL	343800
TTM_SCR_S	332250
TTM_SCR_SS	342500
TTM_RAT_ACV	10037

