VERSION	0.00.00	1.03.00
FES_MODE	0
BPM_DEF	200.000	200.000	200.000	200.000
MET_DEF	4	4
RESOLUTION	384
CLK_DEF	384
COMPATIBLE_CODE	MA2

BPM	0	0	200.000
MET	0	0	4	4

STR	1	0	0
SI_	1	0	0	96	144	3
STR	2	0	7
SI_	2	0	7	96	144	4
STR	3	0	1
SI_	3	0	1	96	144	4
STR	4	0	6
SI_	4	0	6	96	144	3
STR	5	0	0
SI_	5	0	0	96	192	3
STR	6	0	7
SI_	6	0	7	96	192	4
STR	7	0	1
SI_	7	0	1	96	144	4
STR	8	0	6
SI_	8	0	6	96	144	3
TAP	9	0	0
TAP	9	96	0
TAP	9	192	0
TAP	10	0	7
TAP	10	96	7
TAP	10	192	7
TAP	11	0	1
TAP	11	96	1
TAP	11	192	1
TAP	12	0	6
TAP	12	96	6
TAP	12	192	6
TAP	13	0	0
TAP	13	96	1
TAP	13	192	2
TAP	14	0	7
TAP	14	96	6
TAP	14	192	5
TAP	15	0	3
TAP	15	0	4
TAP	15	96	2
TAP	15	96	5
TAP	15	192	1
TAP	15	192	6
TAP	15	288	0
TAP	15	288	7
BRK	16	0	0
BRK	16	0	7
TAP	17	0	0
TAP	17	96	1
TAP	17	192	2
TAP	17	288	3
TAP	18	0	4
TAP	18	96	5
TAP	18	192	6
TAP	18	288	7
TAP	19	0	7
TAP	19	96	7
TAP	19	192	5
TAP	19	288	5
TAP	20	0	3
BRK	20	192	1
TAP	21	0	7
TAP	21	96	6
TAP	21	192	5
TAP	21	288	4
TAP	22	0	3
TAP	22	96	2
TAP	22	192	1
TAP	22	288	0
TAP	23	0	7
TAP	23	96	7
TAP	23	192	0
TAP	23	288	0
TAP	24	0	6
TAP	24	0	7
TAP	24	192	0
TAP	24	192	1
TAP	25	0	1
TAP	25	96	1
TAP	25	192	1
TAP	25	288	1
TAP	25	288	3
TAP	26	0	6
TAP	26	96	6
TAP	26	192	6
TAP	26	288	4
TAP	26	288	6
TAP	27	0	2
TAP	27	96	4
TAP	27	192	5
TAP	27	288	3
TAP	28	0	3
TAP	28	0	4
TAP	28	192	2
TAP	28	192	5
TAP	29	0	1
TAP	29	96	3
TAP	29	192	6
TAP	29	288	4
TAP	30	0	0
TAP	30	96	3
TAP	30	192	7
TAP	30	288	4
TAP	31	0	0
TAP	31	0	7
TAP	31	96	0
TAP	31	96	7
TAP	31	192	0
TAP	31	192	7
TAP	31	288	0
TAP	31	288	7
HLD	32	0	0	192
HLD	32	0	7	192
STR	33	0	1
SUR	33	0	1	96	288	4
STR	35	0	6
SUL	35	0	6	96	288	3
TAP	37	0	0
TAP	37	96	0
TAP	37	192	0
TAP	37	288	0
TAP	38	0	2
TAP	38	96	2
TAP	38	192	2
TAP	38	288	2
TAP	39	0	4
TAP	39	96	4
TAP	39	192	4
TAP	39	288	4
TAP	40	0	6
TAP	40	96	6
TAP	40	192	6
TAP	40	288	6
STR	41	0	0
SI_	41	0	0	96	288	4
TAP	43	0	5
TAP	44	0	6
STR	45	0	6
SI_	45	0	6	96	288	2
TAP	47	0	1
TAP	48	0	0
TAP	49	0	0
TAP	49	96	0
TAP	49	192	4
TAP	49	288	4
TAP	50	0	2
TAP	50	96	2
TAP	50	192	6
TAP	50	288	6
TAP	51	0	2
TAP	51	0	3
TAP	51	192	4
TAP	51	192	5
TAP	52	0	2
TAP	52	0	5
TAP	52	96	1
TAP	52	96	6
BRK	52	192	0
BRK	52	192	7
TAP	53	0	7
TAP	53	96	7
TAP	53	192	3
TAP	53	288	3
TAP	54	0	5
TAP	54	96	5
TAP	54	192	1
TAP	54	288	1
TAP	55	0	0
TAP	55	0	1
TAP	55	192	6
TAP	55	192	7
STR	56	0	0
SCR	56	0	0	96	192	3
STR	56	0	7
SCL	56	0	7	96	192	4
TAP	57	0	1
TAP	57	96	1
TAP	57	192	6
TAP	57	288	6
TAP	58	0	0
TAP	58	0	7
TAP	58	96	0
TAP	58	96	7
TAP	58	192	0
TAP	58	192	7
TAP	59	0	0
TAP	59	0	7
TAP	59	192	1
TAP	59	192	6
TAP	60	0	0
TAP	60	0	1
TAP	60	96	0
TAP	60	96	1
TAP	60	192	0
TAP	60	192	1
TAP	61	0	5
TAP	61	96	5
TAP	61	192	2
TAP	61	288	2
TAP	62	0	3
TAP	62	0	4
TAP	62	96	3
TAP	62	96	4
TAP	62	192	3
TAP	62	192	4
TAP	63	0	2
TAP	63	0	5
TAP	63	192	3
TAP	63	192	4
TAP	64	0	4
TAP	64	0	5
TAP	64	96	4
TAP	64	96	5
TAP	64	192	2
TAP	64	192	3
TAP	64	288	2
TAP	64	288	3
TAP	65	0	0
TAP	65	96	0
TAP	65	192	1
TAP	65	288	2
TAP	66	0	7
TAP	66	96	7
TAP	66	192	6
TAP	66	288	5
TAP	67	0	2
TAP	67	96	3
TAP	67	192	4
TAP	67	288	4
TAP	68	0	4
TAP	68	0	5
TAP	68	96	4
TAP	68	96	5
TAP	68	192	4
TAP	68	192	5
TAP	69	0	5
TAP	69	96	5
TAP	69	192	6
TAP	69	288	7
TAP	70	0	2
TAP	70	96	2
TAP	70	192	1
TAP	70	288	0
TAP	71	0	6
TAP	71	96	7
TAP	71	192	0
TAP	71	288	0
TAP	72	0	0
TAP	72	0	1
TAP	72	96	0
TAP	72	96	1
BRK	72	192	0
BRK	72	192	1
STR	73	0	7
SCL	73	0	7	96	288	0
STR	75	0	0
SCR	75	0	0	96	288	7
STR	77	0	0
SI_	77	0	0	96	144	4
STR	78	0	7
SI_	78	0	7	96	144	3
TAP	79	0	0
TAP	79	0	4
TAP	79	192	2
TAP	79	192	6
TAP	80	0	0
TAP	80	0	4
TAP	80	96	1
TAP	80	96	5
TAP	80	192	2
TAP	80	192	6
BRK	80	288	3
BRK	80	288	7
TAP	81	0	2
TAP	81	0	3
TAP	81	96	2
TAP	81	96	3
TAP	81	192	2
TAP	81	192	3
TAP	81	288	2
TAP	81	288	3
TAP	82	0	4
TAP	82	0	5
TAP	82	96	4
TAP	82	96	5
TAP	82	192	4
TAP	82	192	5
TAP	82	288	4
TAP	82	288	5
TAP	83	0	2
TAP	83	0	4
TAP	83	192	3
TAP	83	192	5
TAP	84	0	2
TAP	84	0	3
TAP	84	96	3
TAP	84	96	4
TAP	84	192	4
TAP	84	192	5
TAP	85	0	0
TAP	85	0	1
TAP	85	96	0
TAP	85	96	1
TAP	85	192	0
TAP	85	192	1
TAP	85	288	0
TAP	85	288	1
TAP	86	0	6
TAP	86	0	7
TAP	86	96	6
TAP	86	96	7
TAP	86	192	6
TAP	86	192	7
TAP	86	288	6
TAP	86	288	7
TAP	87	0	0
TAP	87	0	1
TAP	87	192	6
TAP	87	192	7
TAP	88	0	0
TAP	88	0	7
TAP	88	96	1
TAP	88	96	6
TAP	88	192	2
TAP	88	192	5
TAP	88	288	3
TAP	88	288	4
BRK	89	0	0
BRK	89	0	7

T_REC_TAP	277
T_REC_BRK	11
T_REC_XTP	0
T_REC_HLD	2
T_REC_XHO	0
T_REC_STR	18
T_REC_BST	0
T_REC_XST	0
T_REC_TTP	0
T_REC_THO	0
T_REC_SLD	18
T_REC_ALL	326
T_NUM_TAP	295
T_NUM_BRK	11
T_NUM_HLD	2
T_NUM_SLD	18
T_NUM_ALL	326
T_JUDGE_TAP	306
T_JUDGE_HLD	8
T_JUDGE_SLD	18
T_JUDGE_ALL	332
TTM_EACHPAIRS	81
TTM_SCR_TAP	147500
TTM_SCR_BRK	28600
TTM_SCR_HLD	2000
TTM_SCR_SLD	27000
TTM_SCR_ALL	205100
TTM_SCR_S	197900
TTM_SCR_SS	204000
TTM_RAT_ACV	10053

