VERSION	0.00.00	1.03.00
FES_MODE	0
BPM_DEF	200.000	200.000	200.000	200.000
MET_DEF	4	4
RESOLUTION	384
CLK_DEF	384
COMPATIBLE_CODE	MA2

BPM	0	0	200.000
MET	0	0	4	4

TAP	1	0	0
TAP	2	0	0
TAP	3	0	7
TAP	4	0	7
TAP	5	0	0
TAP	6	0	0
TAP	7	0	7
TAP	8	0	7
TAP	9	0	0
TAP	10	0	7
TAP	11	0	6
TAP	12	0	5
TAP	13	0	4
TAP	14	0	3
HLD	15	0	2	192
TAP	16	0	1
BRK	16	192	1
TAP	17	0	1
TAP	18	0	1
TAP	19	0	0
TAP	19	192	0
TAP	20	0	0
TAP	20	0	7
TAP	21	0	6
TAP	22	0	6
TAP	23	0	7
TAP	23	192	7
TAP	24	0	0
TAP	24	0	7
TAP	25	0	0
TAP	26	0	0
TAP	26	0	1
TAP	27	0	7
TAP	27	192	7
TAP	28	0	6
TAP	28	0	7
TAP	29	0	0
TAP	29	0	1
TAP	30	0	6
TAP	30	0	7
TAP	31	0	0
TAP	31	192	7
TAP	32	0	0
TAP	32	0	7
TAP	32	192	0
TAP	32	192	7
STR	33	0	1
SI_	33	0	1	96	288	6
STR	35	0	5
SI_	35	0	5	96	288	2
TAP	37	0	1
TAP	37	192	1
TAP	38	0	1
TAP	39	0	0
TAP	39	192	0
TAP	40	0	0
STR	41	0	0
SI_	41	0	0	96	288	4
TAP	43	0	5
TAP	44	0	6
STR	45	0	6
SI_	45	0	6	96	288	2
TAP	47	0	1
TAP	48	0	0
TAP	49	0	0
TAP	49	192	0
TAP	50	0	7
TAP	50	192	7
HLD	51	0	0	576
TAP	53	0	7
TAP	53	192	7
TAP	54	0	0
TAP	54	192	0
HLD	55	0	7	576
TAP	57	0	0
TAP	57	192	0
TAP	58	0	1
TAP	58	192	1
TAP	59	0	0
TAP	59	192	0
HLD	60	0	0	192
TAP	61	0	7
TAP	61	192	7
TAP	62	0	6
TAP	62	192	6
TAP	63	0	7
TAP	63	192	7
HLD	64	0	7	192
TAP	65	0	0
TAP	65	192	0
TAP	66	0	1
TAP	66	192	1
TAP	67	0	2
TAP	67	192	3
TAP	68	0	4
TAP	68	192	3
TAP	68	192	4
TAP	69	0	4
TAP	69	192	4
TAP	70	0	5
TAP	70	192	5
TAP	71	0	6
TAP	71	192	7
TAP	72	0	0
TAP	72	192	0
TAP	72	192	7
HLD	73	0	7	192
HLD	74	0	6	192
TAP	75	0	5
TAP	75	192	4
TAP	76	0	3
TAP	76	96	3
TAP	76	192	3
HLD	77	0	3	192
HLD	78	0	2	192
TAP	79	0	1
TAP	79	192	0
TAP	80	0	7
TAP	80	96	7
TAP	80	192	7
TAP	81	0	0
TAP	81	96	0
TAP	81	192	0
TAP	82	0	7
TAP	82	96	7
TAP	82	192	7
TAP	83	0	0
TAP	83	192	7
TAP	84	0	0
TAP	84	96	0
TAP	84	192	0
TAP	85	0	7
TAP	85	96	7
TAP	85	192	7
TAP	86	0	0
TAP	86	96	0
TAP	86	192	0
TAP	87	0	7
TAP	87	192	0
TAP	88	0	7
TAP	88	96	7
TAP	88	192	7
BRK	89	0	0
BRK	89	0	7

T_REC_TAP	124
T_REC_BRK	3
T_REC_XTP	0
T_REC_HLD	9
T_REC_XHO	0
T_REC_STR	4
T_REC_BST	0
T_REC_XST	0
T_REC_TTP	0
T_REC_THO	0
T_REC_SLD	4
T_REC_ALL	144
T_NUM_TAP	128
T_NUM_BRK	3
T_NUM_HLD	9
T_NUM_SLD	4
T_NUM_ALL	144
T_JUDGE_TAP	131
T_JUDGE_HLD	52
T_JUDGE_SLD	4
T_JUDGE_ALL	187
TTM_EACHPAIRS	11
TTM_SCR_TAP	64000
TTM_SCR_BRK	7800
TTM_SCR_HLD	9000
TTM_SCR_SLD	6000
TTM_SCR_ALL	86800
TTM_SCR_S	83950
TTM_SCR_SS	86500
TTM_RAT_ACV	10034

