VERSION	0.00.00	1.03.00
FES_MODE	0
BPM_DEF	162.000	162.000	162.000	162.000
MET_DEF	4	4
RESOLUTION	384
CLK_DEF	384
COMPATIBLE_CODE	MA2

BPM	0	0	162.000
MET	0	0	4	4

TAP	1	0	0
TAP	1	0	7
TAP	1	48	0
TAP	1	48	7
TAP	1	96	1
TAP	1	120	6
TAP	1	144	1
TAP	1	168	6
TAP	1	192	3
TAP	1	192	4
TAP	1	240	3
TAP	1	240	4
TAP	1	288	2
TAP	1	312	5
TAP	1	336	2
TAP	1	360	5
TAP	2	0	0
TAP	2	0	4
TAP	2	48	0
TAP	2	48	4
STR	2	96	6
SI_	2	96	6	96	48	3
TAP	2	120	7
TAP	2	144	5
TAP	2	168	0
TAP	2	192	6
STR	2	288	1
SI_	2	288	1	96	48	5
STR	3	0	5
SI_	3	0	5	96	48	1
STR	3	96	1
SI_	3	96	1	96	48	5
STR	3	192	5
SI_	3	192	5	96	48	1
STR	3	288	1
SCL	3	288	1	96	48	6
STR	4	0	6
SCR	4	0	6	96	48	1
STR	4	96	1
SCR	4	96	1	96	48	4
STR	4	192	4
SCL	4	192	4	96	48	1
STR	4	288	1
SUR	4	288	1	96	48	5
STR	5	0	5
SUR	5	0	5	96	48	1
STR	5	96	1
SUR	5	96	1	96	48	5
STR	5	192	5
SUR	5	192	5	96	48	1
STR	5	288	1
SCL	5	288	1	96	48	6
STR	6	0	6
SI_	6	0	6	96	48	2
TAP	6	192	3
TAP	6	192	4
TAP	6	240	2
TAP	6	240	5
TAP	6	288	1
TAP	6	288	6
TAP	6	336	0
TAP	6	336	7
STR	7	0	6
SI_	7	0	6	96	48	2
STR	7	96	2
SI_	7	96	2	96	48	6
STR	7	192	6
SI_	7	192	6	96	48	2
STR	7	288	2
SI_	7	288	2	96	48	6
STR	8	0	6
SCR	8	0	6	96	48	1
STR	8	96	1
SCL	8	96	1	96	48	6
STR	8	192	6
SCL	8	192	6	96	48	3
STR	8	288	3
SCR	8	288	3	96	48	6
STR	9	0	6
SUL	9	0	6	96	48	2
STR	9	96	2
SUL	9	96	2	96	48	6
STR	9	192	6
SUL	9	192	6	96	48	2
TAP	10	0	0
TAP	10	0	7
TAP	10	48	5
TAP	10	72	4
TAP	10	120	2
TAP	10	144	3
TAP	10	192	4
TAP	10	216	3
TAP	10	240	5
TAP	10	264	2
TAP	10	288	6
TAP	10	312	1
BRK	10	336	7
HLD	11	0	1	144
STR	11	72	2
SI_	11	72	2	96	24	6
TAP	11	144	2
TAP	11	240	5
HLD	11	240	6	144
TAP	11	288	4
TAP	11	336	3
HLD	12	0	2	72
HLD	12	72	0	72
STR	12	144	6
SI_	12	144	6	96	48	2
TAP	12	336	5
TAP	12	360	4
TAP	13	0	5
TAP	13	48	4
TAP	13	72	5
TAP	13	120	5
HLD	13	144	4	240
TAP	13	240	1
TAP	13	288	0
TAP	13	336	7
HLD	14	0	6	72
HLD	14	72	4	72
STR	14	144	2
SI_	14	144	2	96	48	6
TAP	14	336	6
HLD	15	0	6	144
STR	15	72	5
SI_	15	72	5	96	24	1
TAP	15	144	5
HLD	15	240	1	144
TAP	15	240	2
TAP	15	288	3
TAP	15	336	4
HLD	16	0	5	72
HLD	16	72	7	72
STR	16	144	1
SI_	16	144	1	96	48	5
TAP	16	336	2
TAP	17	0	3
TAP	17	48	3
TAP	17	72	2
TAP	17	120	2
HLD	17	144	3	240
TAP	17	240	6
TAP	17	288	7
TAP	17	336	0
HLD	18	0	1	72
HLD	18	72	3	72
HLD	18	144	5	96
HLD	18	240	7	96
TAP	18	288	0
TAP	18	336	0
STR	19	0	0
SCR	19	0	0	96	48	2
TAP	19	48	0
TAP	19	96	7
TAP	19	120	6
TAP	19	144	5
STR	19	192	7
SCL	19	192	7	96	48	5
TAP	19	240	7
TAP	19	288	0
TAP	19	312	1
TAP	19	336	2
STR	20	0	0
SCR	20	0	0	96	48	3
TAP	20	48	0
TAP	20	96	7
TAP	20	120	6
TAP	20	144	5
STR	20	192	7
SCL	20	192	7	96	48	4
TAP	20	240	7
TAP	20	288	0
TAP	20	312	1
TAP	20	336	2
STR	21	0	0
SCR	21	0	0	96	48	2
TAP	21	48	0
TAP	21	96	5
TAP	21	120	6
TAP	21	144	7
STR	21	192	7
SCL	21	192	7	96	48	5
TAP	21	240	7
TAP	21	288	2
TAP	21	312	1
TAP	21	336	0
STR	22	0	0
SCR	22	0	0	96	48	2
TAP	22	48	0
TAP	22	96	4
TAP	22	120	5
TAP	22	144	6
TAP	22	192	3
TAP	22	192	4
TAP	22	240	3
TAP	22	240	4
TAP	22	288	1
TAP	22	288	6
STR	23	0	0
SCR	23	0	0	96	48	2
TAP	23	48	0
TAP	23	96	7
TAP	23	120	6
TAP	23	144	5
STR	23	192	7
SCL	23	192	7	96	48	5
TAP	23	240	7
TAP	23	288	0
TAP	23	312	1
TAP	23	336	2
STR	24	0	0
SCR	24	0	0	96	48	3
TAP	24	48	0
TAP	24	96	4
TAP	24	120	5
TAP	24	144	6
STR	24	192	7
SCL	24	192	7	96	48	4
TAP	24	240	7
TAP	24	288	3
TAP	24	312	2
TAP	24	336	1
STR	25	0	0
SCR	25	0	0	96	48	4
TAP	25	48	0
TAP	25	96	6
TAP	25	120	7
TAP	25	144	0
STR	25	192	7
SCL	25	192	7	96	48	3
TAP	25	240	7
TAP	25	288	1
TAP	25	312	0
TAP	25	336	7
TAP	26	0	0
TAP	26	0	4
TAP	26	48	2
TAP	26	48	6
TAP	26	96	0
TAP	26	96	4
TAP	26	120	1
TAP	26	120	5
TAP	26	144	2
TAP	26	144	6
STR	26	192	3
SCR	26	192	3	96	48	6
STR	26	192	7
SCR	26	192	7	96	48	2
TAP	26	240	1
TAP	26	240	5
BRK	26	288	3
BRK	26	288	7
HLD	27	0	0	144
STR	27	72	3
SI_	27	72	3	96	24	7
TAP	27	144	3
HLD	27	240	7	144
TAP	27	288	6
TAP	27	336	5
HLD	28	0	4	72
HLD	28	72	2	72
STR	28	144	0
SI_	28	144	0	96	48	4
TAP	28	336	5
TAP	28	360	4
TAP	29	0	5
TAP	29	48	4
TAP	29	72	5
TAP	29	120	5
HLD	29	144	4	240
TAP	29	240	2
TAP	29	288	1
TAP	29	336	0
HLD	30	0	7	72
HLD	30	72	5	72
STR	30	144	7
SI_	30	144	7	96	48	3
TAP	30	336	7
HLD	31	0	7	144
STR	31	72	4
SI_	31	72	4	96	24	0
TAP	31	144	4
HLD	31	240	0	144
TAP	31	288	1
TAP	31	336	2
HLD	32	0	3	72
HLD	32	72	5	72
STR	32	144	7
SI_	32	144	7	96	48	3
STR	32	336	6
SI_	32	336	6	96	48	2
TAP	33	0	6
STR	33	48	1
SI_	33	48	1	96	48	5
TAP	33	72	1
TAP	33	120	7
TAP	33	144	7
TAP	33	240	1
TAP	33	240	2
TAP	33	288	5
TAP	33	288	6
TAP	33	336	3
TAP	33	336	4
TAP	34	0	0
TAP	34	0	7
STR	34	72	0
SI_	34	72	0	96	48	4
STR	34	72	7
SI_	34	72	7	96	48	3
TAP	34	144	1
TAP	34	144	6
STR	34	336	2
SV_	34	336	2	96	48	5
STR	34	336	3
SV_	34	336	3	96	48	4
TAP	35	0	2
TAP	35	0	3
STR	35	144	4
SV_	35	144	4	96	48	3
STR	35	144	5
SV_	35	144	5	96	48	2
TAP	35	192	4
TAP	35	192	5
STR	35	336	1
SUL	35	336	1	96	48	5
STR	35	336	2
SUL	35	336	2	96	48	5
TAP	36	0	1
TAP	36	0	2
STR	36	144	5
SUR	36	144	5	96	48	2
STR	36	144	6
SUR	36	144	6	96	48	2
TAP	36	192	5
TAP	36	192	6
STR	36	336	3
SI_	36	336	3	96	48	7
TAP	37	0	2
TAP	37	0	4
STR	37	144	4
SI_	37	144	4	96	48	0
TAP	37	192	3
TAP	37	192	5
STR	37	336	2
SI_	37	336	2	96	48	6
TAP	38	0	1
TAP	38	0	3
TAP	38	144	5
STR	38	192	4
SI_	38	192	4	96	24	0
STR	38	192	6
SI_	38	192	6	96	24	2
STR	38	336	0
SV_	38	336	0	96	48	5
STR	38	336	2
SV_	38	336	2	96	48	5
TAP	39	0	0
TAP	39	0	2
STR	39	144	5
SV_	39	144	5	96	48	2
STR	39	144	7
SV_	39	144	7	96	48	2
TAP	39	192	5
TAP	39	192	7
STR	39	336	1
SV_	39	336	1	96	48	4
STR	39	336	6
SV_	39	336	6	96	48	3
TAP	40	0	1
TAP	40	0	6
TAP	40	144	3
TAP	40	144	4
TAP	40	192	1
TAP	40	192	6
TAP	40	240	0
TAP	40	264	7
TAP	40	336	3
TAP	40	336	4
TAP	41	0	1
TAP	41	48	4
TAP	41	96	3
TAP	41	144	6
TAP	41	192	0
TAP	41	216	7
TAP	41	240	0
TAP	41	288	1
TAP	41	288	6
TAP	42	0	1
TAP	42	0	6
TAP	42	48	3
TAP	42	72	4
TAP	42	96	3
TAP	42	120	4
TAP	42	144	3
TAP	42	168	4
TAP	42	192	3
TAP	42	216	4
TAP	42	240	1
TAP	42	264	6
TAP	42	288	2
TAP	42	312	5
TAP	42	336	0
TAP	42	360	7
BRK	43	0	0
TAP	43	48	0
HLD	43	72	1	72
TAP	43	120	7
HLD	43	144	6	96
STR	43	240	1
SCL	43	240	1	96	48	6
TAP	43	288	2
TAP	43	336	3
TAP	44	0	4
TAP	44	48	5
TAP	44	72	4
TAP	44	120	2
TAP	44	144	3
STR	44	192	1
SUL	44	192	1	96	48	4
STR	44	192	6
SCR	44	192	6	96	48	1
TAP	45	0	3
TAP	45	0	4
TAP	45	48	2
HLD	45	72	3	72
TAP	45	120	5
HLD	45	144	4	96
STR	45	240	6
SCL	45	240	6	96	48	3
TAP	45	288	7
TAP	45	336	0
TAP	46	0	1
TAP	46	48	2
TAP	46	72	3
TAP	46	120	5
TAP	46	144	4
STR	46	192	1
SCL	46	192	1	96	48	6
STR	46	192	6
SUR	46	192	6	96	48	3
TAP	47	0	1
TAP	47	0	6
TAP	47	48	1
HLD	47	72	0	72
TAP	47	120	6
HLD	47	144	7	96
STR	47	240	1
SI_	47	240	1	96	48	5
TAP	47	288	0
TAP	47	336	1
TAP	48	0	0
TAP	48	48	2
TAP	48	72	3
TAP	48	120	5
TAP	48	144	4
TAP	48	192	0
TAP	48	192	7
TAP	48	336	0
TAP	48	336	4
TAP	49	0	2
TAP	49	0	6
TAP	49	48	1
TAP	49	72	7
TAP	49	120	3
TAP	49	144	5
STR	49	192	2
SI_	49	192	2	96	48	7
STR	49	192	6
SI_	49	192	6	96	48	3
TAP	49	288	2
TAP	49	288	6
TAP	50	0	0
TAP	50	0	4
TAP	50	48	6
TAP	50	72	0
TAP	50	120	4
TAP	50	144	2
TAP	50	192	1
TAP	50	192	5
TAP	50	288	3
TAP	50	312	7
TAP	50	336	1
TAP	50	360	5
TAP	51	0	0
TAP	51	0	4
TAP	51	48	1
HLD	51	72	2	72
TAP	51	120	5
HLD	51	144	6	96
STR	51	240	3
SCR	51	240	3	96	48	6
TAP	51	288	2
TAP	51	336	1
TAP	52	0	0
TAP	52	48	6
TAP	52	48	7
TAP	52	72	6
TAP	52	72	7
TAP	52	120	0
TAP	52	120	1
TAP	52	144	0
TAP	52	144	1
TAP	52	192	3
HLD	52	192	4	96
TAP	52	288	7
TAP	52	312	0
TAP	52	336	1
TAP	52	360	2
TAP	53	0	3
TAP	53	0	7
TAP	53	48	2
HLD	53	72	1	72
TAP	53	120	6
HLD	53	144	5	96
STR	53	240	0
SCL	53	240	0	96	48	5
TAP	53	288	1
TAP	53	336	2
TAP	54	0	3
TAP	54	48	4
TAP	54	48	5
TAP	54	72	4
TAP	54	72	5
TAP	54	120	2
TAP	54	120	3
TAP	54	144	2
TAP	54	144	3
HLD	54	192	3	96
TAP	54	192	4
TAP	54	288	0
TAP	54	312	7
TAP	54	336	6
TAP	54	360	5
TAP	55	0	0
TAP	55	0	4
TAP	55	48	2
TAP	55	72	6
TAP	55	120	0
TAP	55	144	4
STR	55	240	1
SI_	55	240	1	96	48	5
TAP	55	288	3
TAP	55	288	7
TAP	55	336	1
TAP	55	336	5
TAP	56	0	6
TAP	56	48	0
TAP	56	48	7
TAP	56	72	1
TAP	56	72	6
TAP	56	120	3
TAP	56	120	4
TAP	56	144	2
TAP	56	144	5
TAP	56	192	0
TAP	56	192	7
TAP	56	336	0
TAP	56	336	4
STR	57	0	0
SUR	57	0	0	96	48	4
STR	57	0	4
SUR	57	0	4	96	48	0
STR	57	96	0
SCL	57	96	0	96	48	5
STR	57	96	4
SCL	57	96	4	96	48	1
BRK	57	192	0
BRK	57	192	4
TAP	57	336	0
TAP	57	336	1
STR	58	0	0
SI_	58	0	0	96	48	4
TAP	58	0	1
TAP	58	96	0
STR	58	96	7
SI_	58	96	7	96	48	3
STR	58	192	6
SI_	58	192	6	96	48	2
TAP	58	192	7
BRK	58	288	0
TAP	58	288	6
STR	59	0	0
SV_	59	0	0	96	48	2
STR	59	0	4
SV_	59	0	4	96	48	6
TAP	59	48	0
TAP	59	48	4
STR	59	288	3
SV_	59	288	3	96	48	1
STR	59	288	7
SV_	59	288	7	96	48	5
TAP	59	336	3
TAP	59	336	7
STR	60	192	2
SV_	60	192	2	96	48	0
STR	60	192	4
SV_	60	192	4	96	48	6
TAP	60	240	2
TAP	60	240	4
STR	61	0	3
SV_	61	0	3	96	48	1
STR	61	0	5
SV_	61	0	5	96	48	7
TAP	61	48	3
TAP	61	48	5
STR	61	288	0
SV_	61	288	0	96	48	3
STR	61	288	4
SV_	61	288	4	96	48	7
TAP	61	336	2
TAP	61	336	6
TAP	62	192	1
TAP	62	192	3
TAP	62	264	4
TAP	62	264	6
TAP	62	336	1
TAP	62	336	6
TAP	63	0	0
TAP	63	48	5
TAP	63	72	4
TAP	63	120	6
TAP	63	144	7
TAP	63	192	3
TAP	63	216	2
TAP	63	264	0
TAP	63	288	1
TAP	63	336	2
TAP	63	336	5
TAP	64	0	7
TAP	64	48	2
TAP	64	72	3
TAP	64	120	1
TAP	64	144	0
TAP	64	192	4
TAP	64	216	5
TAP	64	264	7
TAP	64	288	6
TAP	64	336	2
TAP	64	336	5
TAP	65	0	0
TAP	65	0	7
TAP	65	48	1
TAP	65	72	2
TAP	65	120	6
TAP	65	144	5
TAP	65	192	3
TAP	65	192	4
TAP	65	240	6
TAP	65	264	4
TAP	65	312	0
TAP	65	336	2
TAP	66	0	0
TAP	66	0	1
TAP	66	48	4
TAP	66	48	5
TAP	66	96	0
TAP	66	96	1
TAP	66	144	4
TAP	66	144	5
TAP	66	192	0
TAP	66	192	2
TAP	66	240	4
TAP	66	240	6
TAP	66	288	0
TAP	66	288	7
TAP	66	336	3
TAP	66	336	4
BRK	67	0	1
BRK	67	0	6
TAP	67	48	1
TAP	67	48	4
TAP	67	72	2
TAP	67	120	3
TAP	67	120	6
TAP	67	144	5
STR	67	192	1
SI_	67	192	1	96	24	5
TAP	67	216	1
STR	67	264	6
SI_	67	264	6	96	24	2
TAP	67	288	6
TAP	67	336	0
HLD	68	0	7	72
HLD	68	72	5	72
HLD	68	144	3	48
STR	68	192	1
SCR	68	192	1	96	48	4
TAP	68	288	0
TAP	68	312	7
TAP	68	336	6
TAP	68	360	5
TAP	69	0	4
TAP	69	48	0
TAP	69	48	3
TAP	69	72	1
TAP	69	120	4
TAP	69	120	7
TAP	69	144	6
STR	69	192	5
SI_	69	192	5	96	24	0
TAP	69	240	5
STR	69	288	2
SI_	69	288	2	96	24	7
TAP	69	336	2
HLD	70	0	4	72
HLD	70	72	6	72
HLD	70	144	0	48
STR	70	192	2
SCL	70	192	2	96	48	7
TAP	70	288	3
TAP	70	312	4
TAP	70	336	5
TAP	70	360	6
TAP	71	0	7
TAP	71	48	2
TAP	71	48	7
TAP	71	72	1
TAP	71	120	0
TAP	71	120	5
TAP	71	144	6
STR	71	192	0
SI_	71	192	0	96	24	4
TAP	71	216	0
STR	71	264	7
SI_	71	264	7	96	24	3
TAP	71	288	7
TAP	71	336	1
HLD	72	0	6	72
HLD	72	72	7	72
HLD	72	144	0	48
BRK	72	192	1
TAP	72	336	3
TAP	72	336	7
TAP	73	0	1
TAP	73	0	5
TAP	73	48	6
TAP	73	72	0
TAP	73	120	4
TAP	73	144	2
STR	73	192	1
SI_	73	192	1	96	48	4
STR	73	192	5
SI_	73	192	5	96	48	0
TAP	74	0	3
TAP	74	0	7
TAP	74	72	1
TAP	74	72	5
TAP	74	144	0
TAP	74	144	7
STR	74	192	1
SCL	74	192	1	96	48	5
STR	74	192	2
SUL	74	192	2	96	48	5
TAP	75	0	0
TAP	75	0	4
TAP	75	24	1
TAP	75	24	5
TAP	75	48	2
TAP	75	48	6
TAP	75	72	3
TAP	75	72	7
TAP	75	144	0
TAP	75	144	4
TAP	75	168	1
TAP	75	168	5
TAP	75	192	2
TAP	75	192	6
TAP	75	216	3
TAP	75	216	7
STR	75	288	3
SUL	75	288	3	96	48	7
STR	75	288	7
SUL	75	288	7	96	48	3
STR	76	0	3
SCR	76	0	3	96	48	6
STR	76	0	7
SCR	76	0	7	96	48	2
STR	76	96	3
SI_	76	96	3	96	48	0
STR	76	96	7
SI_	76	96	7	96	48	4
STR	76	192	3
SI_	76	192	3	96	48	6
STR	76	192	7
SI_	76	192	7	96	48	2
STR	76	288	3
SUL	76	288	3	96	48	7
STR	76	288	7
SUL	76	288	7	96	48	3
STR	77	0	3
SCR	77	0	3	96	48	6
STR	77	0	7
SCR	77	0	7	96	48	2
TAP	77	192	3
TAP	77	192	7
TAP	77	240	2
TAP	77	240	6
STR	77	288	1
SUR	77	288	1	96	48	5
STR	77	288	5
SUR	77	288	5	96	48	1
STR	78	0	1
SCL	78	0	1	96	48	6
STR	78	0	5
SCL	78	0	5	96	48	2
STR	78	96	1
SI_	78	96	1	96	48	4
STR	78	96	5
SI_	78	96	5	96	48	0
STR	78	192	1
SI_	78	192	1	96	48	6
STR	78	192	5
SI_	78	192	5	96	48	2
STR	78	288	1
SUR	78	288	1	96	48	5
STR	78	288	5
SUR	78	288	5	96	48	1
STR	79	0	1
SCL	79	0	1	96	48	6
STR	79	0	5
SCL	79	0	5	96	48	2
TAP	79	192	2
TAP	79	192	6
TAP	79	240	2
TAP	79	240	6
STR	79	288	0
SUR	79	288	0	96	48	4
STR	79	288	4
SUR	79	288	4	96	48	0
TAP	79	336	0
TAP	79	336	4
STR	80	0	0
SCL	80	0	0	96	48	5
STR	80	0	4
SCL	80	0	4	96	48	1
STR	80	96	0
SI_	80	96	0	96	48	3
STR	80	96	4
SI_	80	96	4	96	48	7
STR	80	192	0
SI_	80	192	0	96	48	5
STR	80	192	4
SI_	80	192	4	96	48	1
STR	80	288	0
SUR	80	288	0	96	48	4
STR	80	288	4
SUR	80	288	4	96	48	0
STR	81	0	0
SCL	81	0	0	96	48	5
STR	81	0	4
SCL	81	0	4	96	48	1
TAP	81	192	0
TAP	81	192	4
TAP	81	240	1
TAP	81	240	5
STR	81	288	2
SUL	81	288	2	96	48	6
STR	81	288	6
SUL	81	288	6	96	48	2
STR	82	0	2
SCR	82	0	2	96	48	5
STR	82	0	6
SCR	82	0	6	96	48	1
STR	82	96	2
SUL	82	96	2	96	48	6
STR	82	96	6
SUL	82	96	6	96	48	2
STR	82	192	2
SCR	82	192	2	96	48	5
STR	82	192	6
SCR	82	192	6	96	48	1
TAP	83	0	2
TAP	83	0	5
TAP	83	48	1
TAP	83	72	0
TAP	83	120	6
TAP	83	144	7
TAP	83	192	3
TAP	83	216	4
TAP	83	240	3
TAP	83	264	4
TAP	83	288	3
TAP	83	312	4
TAP	83	336	3
HLD	84	0	6	96
TAP	84	0	7
TAP	84	48	7
TAP	84	96	7
TAP	84	120	0
TAP	84	144	1
TAP	84	168	2
HLD	84	192	3	96
TAP	84	192	7
TAP	84	240	7
TAP	84	288	7
TAP	84	312	6
TAP	84	336	5
TAP	84	360	4
TAP	85	0	3
TAP	85	48	4
TAP	85	96	1
TAP	85	120	6
TAP	85	144	0
TAP	85	168	7
STR	85	192	0
SI_	85	192	0	96	48	4
BRK	85	288	7
TAP	86	0	0
TAP	86	0	4
TAP	86	48	0
TAP	86	48	4
TAP	86	96	0
TAP	86	96	4
TAP	86	120	1
TAP	86	120	5
TAP	86	144	2
TAP	86	144	6
TAP	86	168	3
TAP	86	168	7
TAP	86	192	0
TAP	86	192	4
TAP	86	240	0
TAP	86	240	4
TAP	86	288	3
TAP	86	288	7
TAP	86	312	2
TAP	86	312	6
TAP	86	336	1
TAP	86	336	5
TAP	86	360	0
TAP	86	360	4
TAP	87	0	3
TAP	87	0	7
TAP	87	48	3
TAP	87	48	7
STR	87	96	0
SV_	87	96	0	96	48	6
STR	87	96	4
SV_	87	96	4	96	48	2
TAP	87	120	1
TAP	87	120	5
TAP	87	144	2
TAP	87	144	6
TAP	87	168	3
TAP	87	168	7

T_REC_TAP	561
T_REC_BRK	11
T_REC_XTP	0
T_REC_HLD	50
T_REC_XHO	0
T_REC_STR	162
T_REC_BST	0
T_REC_XST	0
T_REC_TTP	0
T_REC_THO	0
T_REC_SLD	162
T_REC_ALL	946
T_NUM_TAP	723
T_NUM_BRK	11
T_NUM_HLD	50
T_NUM_SLD	162
T_NUM_ALL	946
T_JUDGE_TAP	734
T_JUDGE_HLD	114
T_JUDGE_SLD	162
T_JUDGE_ALL	1010
TTM_EACHPAIRS	190
TTM_SCR_TAP	361500
TTM_SCR_BRK	28600
TTM_SCR_HLD	50000
TTM_SCR_SLD	243000
TTM_SCR_ALL	683100
TTM_SCR_S	661550
TTM_SCR_SS	682000
TTM_RAT_ACV	10016

