VERSION	0.00.00	1.03.00
FES_MODE	0
BPM_DEF	162.000	162.000	162.000	162.000
MET_DEF	4	4
RESOLUTION	384
CLK_DEF	384
COMPATIBLE_CODE	MA2

BPM	0	0	162.000
MET	0	0	4	4

TAP	1	0	2
TAP	1	48	5
TAP	1	96	3
TAP	1	120	4
TAP	1	144	3
TAP	1	168	4
TAP	1	192	1
TAP	1	240	6
TAP	1	288	2
TAP	1	312	5
TAP	1	336	2
TAP	1	360	5
TAP	2	0	0
TAP	2	48	7
TAP	2	96	1
TAP	2	120	6
TAP	2	144	1
TAP	2	168	6
STR	2	192	0
SI_	2	192	0	96	48	3
STR	2	192	7
SI_	2	192	7	96	48	4
BRK	2	288	0
BRK	2	288	7
TAP	3	0	3
TAP	3	48	4
TAP	3	96	2
TAP	3	120	3
TAP	3	144	2
TAP	3	192	4
TAP	3	240	3
TAP	3	288	5
TAP	3	312	4
TAP	3	336	5
TAP	4	0	3
TAP	4	48	4
TAP	4	96	2
TAP	4	120	3
TAP	4	144	2
TAP	4	192	4
TAP	4	240	3
TAP	4	288	5
TAP	4	312	4
TAP	4	336	5
TAP	5	0	2
TAP	5	48	3
TAP	5	96	1
TAP	5	120	4
TAP	5	144	1
TAP	5	192	5
TAP	5	240	4
TAP	5	288	6
TAP	5	312	3
TAP	5	336	6
TAP	6	0	1
TAP	6	48	6
TAP	6	96	0
TAP	6	120	7
TAP	6	144	0
TAP	6	192	6
TAP	6	192	7
TAP	6	240	0
TAP	6	240	1
TAP	6	288	0
TAP	6	288	7
TAP	6	336	2
TAP	6	336	5
TAP	7	0	3
TAP	7	0	4
TAP	7	48	3
TAP	7	48	4
TAP	7	96	2
TAP	7	120	3
TAP	7	144	2
TAP	7	192	3
TAP	7	192	4
TAP	7	240	3
TAP	7	240	4
TAP	7	288	5
TAP	7	312	4
TAP	7	336	5
TAP	8	0	3
TAP	8	0	4
TAP	8	48	2
TAP	8	48	3
TAP	8	96	1
TAP	8	120	3
TAP	8	144	1
TAP	8	192	3
TAP	8	192	4
TAP	8	240	4
TAP	8	240	5
TAP	8	288	6
TAP	8	312	4
TAP	8	336	6
TAP	9	0	3
TAP	9	0	4
TAP	9	48	2
TAP	9	48	3
TAP	9	96	1
TAP	9	120	2
TAP	9	144	1
TAP	9	192	3
TAP	9	192	4
TAP	9	240	4
TAP	9	240	5
TAP	9	288	6
TAP	9	312	5
TAP	9	336	6
TAP	10	0	3
TAP	10	0	4
TAP	10	48	2
TAP	10	48	5
TAP	10	96	1
TAP	10	120	6
TAP	10	144	1
TAP	10	192	0
TAP	10	192	7
TAP	10	240	1
TAP	10	240	6
TAP	10	288	2
TAP	10	312	5
TAP	10	336	2
TAP	11	0	3
TAP	11	0	4
TAP	11	48	2
TAP	11	72	3
TAP	11	120	3
HLD	11	144	2	96
TAP	11	240	1
TAP	11	288	0
TAP	11	336	7
TAP	12	0	6
TAP	12	72	4
TAP	12	72	5
TAP	12	144	2
STR	12	144	3
SI_	12	144	3	96	48	7
TAP	12	240	0
TAP	12	288	0
TAP	13	0	3
TAP	13	0	4
TAP	13	48	5
TAP	13	72	4
TAP	13	120	4
HLD	13	144	5	96
TAP	13	240	6
TAP	13	288	7
TAP	13	336	0
TAP	14	0	1
TAP	14	72	2
TAP	14	72	3
STR	14	144	4
SI_	14	144	4	96	48	0
TAP	14	144	5
TAP	14	240	7
TAP	14	288	7
TAP	15	0	3
TAP	15	0	4
TAP	15	48	2
TAP	15	72	3
TAP	15	120	4
HLD	15	144	1	96
TAP	15	240	4
TAP	15	288	5
TAP	15	336	6
TAP	16	0	7
TAP	16	72	0
TAP	16	72	1
STR	16	144	2
SI_	16	144	2	96	48	6
TAP	16	144	3
TAP	16	240	0
TAP	16	288	0
TAP	17	0	3
TAP	17	0	4
TAP	17	48	5
TAP	17	72	4
TAP	17	120	3
HLD	17	144	6	96
TAP	17	240	3
TAP	17	288	2
TAP	17	336	1
TAP	18	0	0
TAP	18	72	6
TAP	18	72	7
TAP	18	144	4
STR	18	144	5
SI_	18	144	5	96	48	1
TAP	18	240	6
TAP	18	288	7
TAP	18	336	0
TAP	19	0	2
TAP	19	48	3
TAP	19	96	1
TAP	19	120	0
TAP	19	144	1
TAP	19	192	5
TAP	19	240	4
TAP	19	288	6
TAP	19	312	7
TAP	19	336	6
TAP	20	0	2
TAP	20	48	3
TAP	20	96	1
TAP	20	120	0
TAP	20	144	1
TAP	20	192	5
TAP	20	240	4
TAP	20	288	6
TAP	20	312	7
TAP	20	336	6
TAP	21	0	1
TAP	21	48	0
TAP	21	96	2
TAP	21	120	7
TAP	21	144	2
TAP	21	192	6
TAP	21	240	7
TAP	21	288	5
TAP	21	312	0
TAP	21	336	5
TAP	22	0	2
TAP	22	48	5
TAP	22	96	3
TAP	22	120	4
TAP	22	144	3
TAP	22	192	4
TAP	22	192	6
TAP	22	264	1
TAP	22	264	3
TAP	22	336	2
TAP	22	336	5
TAP	23	0	0
TAP	23	0	7
TAP	23	48	0
TAP	23	48	7
TAP	23	96	1
TAP	23	120	0
TAP	23	144	1
TAP	23	192	0
TAP	23	192	7
TAP	23	240	0
TAP	23	240	7
TAP	23	288	6
TAP	23	312	7
TAP	23	336	6
TAP	24	0	0
TAP	24	0	7
TAP	24	48	0
TAP	24	48	1
TAP	24	96	2
TAP	24	120	0
TAP	24	144	2
TAP	24	192	0
TAP	24	192	7
TAP	24	240	6
TAP	24	240	7
TAP	24	288	5
TAP	24	312	7
TAP	24	336	5
TAP	25	0	0
TAP	25	0	7
TAP	25	48	0
TAP	25	48	1
TAP	25	96	2
TAP	25	120	1
TAP	25	144	2
TAP	25	192	0
TAP	25	192	7
TAP	25	240	6
TAP	25	240	7
TAP	25	288	5
TAP	25	312	6
TAP	25	336	5
TAP	26	0	3
TAP	26	0	4
TAP	26	48	2
TAP	26	48	5
TAP	26	96	1
TAP	26	120	6
TAP	26	144	1
STR	26	192	3
SCR	26	192	3	96	48	6
STR	26	192	4
SCL	26	192	4	96	48	1
TAP	26	240	0
TAP	26	240	7
TAP	27	0	0
TAP	27	0	7
TAP	27	48	1
TAP	27	72	0
TAP	27	120	0
HLD	27	144	1	96
TAP	27	240	2
TAP	27	288	3
TAP	27	336	4
TAP	28	0	5
TAP	28	72	6
TAP	28	72	7
STR	28	144	0
SI_	28	144	0	96	48	4
TAP	28	144	1
TAP	28	240	7
TAP	28	288	7
TAP	29	0	0
TAP	29	0	7
TAP	29	48	6
TAP	29	72	7
TAP	29	120	7
HLD	29	144	6	96
TAP	29	240	5
TAP	29	288	4
TAP	29	336	3
TAP	30	0	2
TAP	30	72	0
TAP	30	72	1
TAP	30	144	6
STR	30	144	7
SI_	30	144	7	96	48	3
TAP	30	240	0
TAP	30	288	0
TAP	31	0	0
TAP	31	0	7
TAP	31	48	1
TAP	31	72	0
TAP	31	120	7
HLD	31	144	2	96
TAP	31	240	1
TAP	31	288	3
TAP	31	336	4
TAP	32	0	5
TAP	32	72	6
TAP	32	72	7
TAP	32	144	0
STR	32	144	1
SI_	32	144	1	96	48	5
TAP	32	240	7
TAP	32	288	7
TAP	33	0	0
TAP	33	0	7
TAP	33	48	6
TAP	33	72	7
TAP	33	120	0
HLD	33	144	5	96
TAP	33	240	6
TAP	33	288	4
TAP	33	336	3
TAP	34	0	2
STR	34	72	0
SCL	34	72	0	96	48	5
STR	34	72	7
SCR	34	72	7	96	48	2
TAP	34	144	3
TAP	34	144	4
TAP	34	336	0
STR	34	360	1
SI_	34	360	1	96	48	5
TAP	35	0	2
TAP	35	144	7
STR	35	168	6
SI_	35	168	6	96	48	2
TAP	35	192	5
TAP	35	336	0
STR	35	360	1
SI_	35	360	1	96	48	5
TAP	36	0	2
TAP	36	144	7
STR	36	168	6
SI_	36	168	6	96	48	2
TAP	36	192	5
TAP	36	336	1
STR	36	360	2
SI_	36	360	2	96	48	6
TAP	37	0	3
TAP	37	144	6
STR	37	168	5
SI_	37	168	5	96	48	1
TAP	37	192	4
TAP	37	336	1
STR	37	360	2
SI_	37	360	2	96	48	6
TAP	38	0	3
TAP	38	144	6
STR	38	168	5
SI_	38	168	5	96	48	1
TAP	38	192	4
TAP	38	336	0
STR	38	360	1
SI_	38	360	1	96	48	5
TAP	39	0	2
TAP	39	72	1
TAP	39	144	7
STR	39	168	6
SI_	39	168	6	96	48	2
TAP	39	192	5
TAP	39	264	6
TAP	39	336	0
STR	39	360	1
SI_	39	360	1	96	48	5
TAP	40	0	2
TAP	40	72	0
TAP	40	72	1
TAP	40	144	7
STR	40	168	6
SI_	40	168	6	96	48	2
TAP	40	192	5
TAP	40	264	6
TAP	40	264	7
TAP	40	336	1
TAP	40	360	3
TAP	41	0	1
STR	41	64	0
SI_	41	64	0	96	48	4
STR	41	64	7
SI_	41	64	7	96	48	3
STR	41	144	0
SCL	41	144	0	96	48	5
STR	41	144	7
SCR	41	144	7	96	48	2
TAP	41	240	0
TAP	41	240	7
TAP	41	336	6
TAP	41	360	4
TAP	42	0	6
STR	42	64	0
SCL	42	64	0	96	48	5
STR	42	64	7
SCR	42	64	7	96	48	2
STR	42	144	0
SI_	42	144	0	96	48	4
STR	42	144	7
SI_	42	144	7	96	48	3
BRK	42	240	0
BRK	42	240	7
TAP	42	336	2
TAP	42	360	3
TAP	43	0	2
TAP	43	48	1
TAP	43	72	0
TAP	43	120	0
HLD	43	144	7	96
TAP	43	240	6
TAP	43	288	0
TAP	43	288	5
TAP	43	336	1
TAP	43	336	4
TAP	44	0	2
STR	44	0	3
SI_	44	0	3	96	48	7
STR	44	72	0
SI_	44	72	0	96	48	4
TAP	44	144	0
TAP	44	192	7
TAP	44	288	3
TAP	44	288	4
TAP	44	336	5
TAP	44	360	4
TAP	45	0	5
TAP	45	48	6
TAP	45	72	7
TAP	45	120	7
HLD	45	144	0	96
TAP	45	240	1
TAP	45	288	2
TAP	45	288	7
TAP	45	336	3
TAP	45	336	6
STR	46	0	4
SI_	46	0	4	96	48	0
TAP	46	0	5
STR	46	72	7
SI_	46	72	7	96	48	3
TAP	46	144	7
TAP	46	192	0
TAP	46	288	3
TAP	46	288	4
TAP	46	336	2
TAP	46	360	3
TAP	47	0	2
TAP	47	48	1
TAP	47	72	0
TAP	47	120	0
HLD	47	144	7	96
TAP	47	240	6
TAP	47	288	4
TAP	47	288	5
TAP	47	336	2
TAP	47	336	3
TAP	48	0	0
STR	48	0	1
SI_	48	0	1	96	48	5
STR	48	72	6
SI_	48	72	6	96	48	2
TAP	48	144	6
TAP	48	192	0
TAP	48	288	2
TAP	48	288	3
TAP	48	336	0
STR	48	360	1
SI_	48	360	1	96	48	5
TAP	49	0	2
TAP	49	72	1
TAP	49	144	6
TAP	49	192	6
TAP	49	192	7
TAP	49	288	4
TAP	49	288	5
TAP	49	336	7
STR	49	360	6
SI_	49	360	6	96	48	2
TAP	50	0	5
TAP	50	72	6
TAP	50	144	1
TAP	50	192	0
TAP	50	192	1
TAP	50	288	3
TAP	50	288	4
TAP	50	336	5
TAP	50	360	4
TAP	51	0	5
TAP	51	48	6
TAP	51	72	7
TAP	51	120	7
HLD	51	144	0	96
TAP	51	240	1
TAP	51	288	2
TAP	51	288	7
TAP	51	336	3
TAP	51	336	6
STR	52	0	4
SI_	52	0	4	96	48	0
TAP	52	0	5
STR	52	72	7
SI_	52	72	7	96	48	3
TAP	52	144	7
TAP	52	192	0
TAP	52	288	3
TAP	52	288	4
TAP	52	336	2
TAP	52	360	3
TAP	53	0	2
TAP	53	48	1
TAP	53	72	0
TAP	53	120	0
HLD	53	144	7	96
TAP	53	240	6
TAP	53	288	0
TAP	53	288	5
TAP	53	336	1
TAP	53	336	4
TAP	54	0	2
STR	54	0	3
SI_	54	0	3	96	48	7
STR	54	72	0
SI_	54	72	0	96	48	4
TAP	54	144	0
TAP	54	192	7
TAP	54	288	3
TAP	54	288	4
TAP	54	336	5
TAP	54	360	4
TAP	55	0	5
TAP	55	48	6
TAP	55	72	7
TAP	55	120	7
HLD	55	144	0	96
TAP	55	240	1
TAP	55	288	2
TAP	55	288	3
TAP	55	336	4
TAP	55	336	5
STR	56	0	6
SI_	56	0	6	96	48	2
TAP	56	0	7
STR	56	72	1
SI_	56	72	1	96	48	5
TAP	56	144	1
TAP	56	192	7
TAP	56	288	3
TAP	56	288	4
TAP	56	336	1
STR	56	360	6
SI_	56	360	6	96	48	3
TAP	57	0	1
TAP	57	72	6
TAP	57	144	2
TAP	57	192	2
TAP	57	192	3
TAP	57	288	4
TAP	57	288	5
TAP	57	336	1
TAP	57	360	0
STR	58	0	1
SI_	58	0	1	96	48	4
TAP	58	96	1
STR	58	96	5
SI_	58	96	5	96	48	0
STR	58	192	2
SI_	58	192	2	96	48	7
TAP	58	192	5
BRK	58	288	0
TAP	58	288	2
TAP	59	0	1
TAP	59	0	6
HLD	59	48	3	192
HLD	59	48	4	192
TAP	59	288	2
TAP	59	288	5
HLD	59	336	0	144
HLD	59	336	7	144
TAP	60	144	1
TAP	60	168	5
HLD	60	192	0	144
HLD	60	240	4	96
TAP	61	0	1
TAP	61	0	5
HLD	61	48	3	192
HLD	61	48	7	192
TAP	61	288	2
TAP	61	288	6
HLD	61	336	1	144
HLD	61	336	5	144
TAP	62	144	6
TAP	62	168	7
TAP	62	192	0
TAP	62	192	5
TAP	62	264	2
TAP	62	264	7
TAP	62	336	1
TAP	62	336	6
TAP	63	0	2
TAP	63	0	5
TAP	63	48	1
TAP	63	72	3
TAP	63	120	2
TAP	63	144	4
TAP	63	192	3
TAP	63	216	5
TAP	63	264	4
TAP	63	288	6
TAP	63	336	0
TAP	63	336	7
TAP	64	0	2
TAP	64	0	5
TAP	64	48	6
TAP	64	72	4
TAP	64	120	5
TAP	64	144	3
TAP	64	192	4
TAP	64	216	2
TAP	64	264	3
TAP	64	288	1
TAP	64	336	0
TAP	64	336	7
TAP	65	0	1
TAP	65	0	6
TAP	65	48	2
TAP	65	72	3
TAP	65	120	5
TAP	65	144	4
TAP	65	192	1
TAP	65	216	3
TAP	65	264	6
TAP	65	288	4
TAP	65	336	0
TAP	65	336	7
STR	66	0	0
SCR	66	0	0	96	48	2
STR	66	48	7
SCL	66	48	7	96	48	5
STR	66	96	0
SI_	66	96	0	96	48	4
STR	66	144	7
SI_	66	144	7	96	48	3
STR	66	192	0
SI_	66	192	0	96	48	2
STR	66	240	7
SI_	66	240	7	96	48	5
TAP	67	0	0
TAP	67	48	2
TAP	67	72	3
TAP	67	120	5
TAP	67	144	4
TAP	67	192	1
TAP	67	216	3
TAP	67	264	6
TAP	67	288	4
TAP	67	336	0
TAP	67	336	7
STR	68	0	1
SI_	68	0	1	96	48	5
STR	68	72	7
SI_	68	72	7	96	48	3
TAP	68	144	7
BRK	68	192	0
TAP	68	288	1
TAP	68	312	6
TAP	68	336	1
TAP	68	360	6
TAP	69	0	0
TAP	69	0	7
TAP	69	48	2
TAP	69	72	3
TAP	69	120	5
TAP	69	144	4
TAP	69	192	6
TAP	69	192	7
TAP	69	240	2
TAP	69	240	3
TAP	69	288	0
TAP	69	288	1
TAP	69	336	4
TAP	69	336	5
TAP	70	0	3
TAP	70	0	6
TAP	70	72	1
TAP	70	72	4
TAP	70	144	2
TAP	70	144	5
BRK	70	192	0
BRK	70	192	7
TAP	70	288	2
TAP	70	288	5
TAP	70	336	7
TAP	70	360	0
TAP	71	0	7
TAP	71	48	5
TAP	71	72	4
TAP	71	120	2
TAP	71	144	3
TAP	71	192	6
TAP	71	216	4
TAP	71	264	1
TAP	71	288	3
TAP	71	336	0
TAP	71	336	7
STR	72	0	6
SI_	72	0	6	96	48	2
STR	72	72	0
SI_	72	72	0	96	48	4
TAP	72	144	0
BRK	72	192	7
TAP	72	288	1
TAP	72	288	6
TAP	72	336	0
STR	72	360	1
SI_	72	360	1	96	48	5
TAP	73	0	2
TAP	73	72	1
TAP	73	144	4
TAP	73	192	3
TAP	73	192	4
TAP	73	288	1
TAP	73	288	6
TAP	73	336	7
STR	73	360	6
SI_	73	360	6	96	48	2
TAP	74	0	5
TAP	74	72	6
TAP	74	144	3
STR	74	192	3
SI_	74	192	3	96	48	7
STR	74	192	4
SI_	74	192	4	96	48	0
BRK	74	288	3
BRK	74	288	4
TAP	75	0	1
TAP	75	24	5
TAP	75	48	3
HLD	75	72	7	72
TAP	75	144	2
TAP	75	168	6
STR	75	192	0
SI_	75	192	0	96	48	4
HLD	75	216	4	72
BRK	75	288	0
TAP	76	0	3
TAP	76	0	5
TAP	76	48	2
TAP	76	48	4
TAP	76	96	1
TAP	76	120	3
TAP	76	144	1
TAP	76	192	2
TAP	76	192	4
TAP	76	240	3
TAP	76	240	5
TAP	76	288	6
TAP	76	312	4
TAP	76	336	6
TAP	77	0	3
TAP	77	0	5
TAP	77	48	2
TAP	77	48	4
TAP	77	96	1
TAP	77	120	0
TAP	77	144	1
TAP	77	192	2
TAP	77	192	4
TAP	77	240	3
TAP	77	240	5
TAP	77	288	6
TAP	77	312	7
TAP	77	336	6
TAP	78	0	4
TAP	78	0	5
TAP	78	48	2
TAP	78	48	3
TAP	78	96	1
TAP	78	120	4
TAP	78	144	1
TAP	78	192	2
TAP	78	192	3
TAP	78	240	4
TAP	78	240	5
TAP	78	288	6
TAP	78	312	3
TAP	78	336	6
TAP	79	0	4
TAP	79	0	5
TAP	79	48	2
TAP	79	48	3
TAP	79	96	1
TAP	79	120	0
TAP	79	144	1
BRK	79	192	2
BRK	79	192	7
BRK	79	240	0
BRK	79	240	5
BRK	79	288	3
BRK	79	288	6
BRK	79	336	1
BRK	79	336	4
TAP	80	0	2
TAP	80	0	3
TAP	80	48	1
TAP	80	48	4
TAP	80	96	0
TAP	80	120	7
TAP	80	144	0
TAP	80	192	4
TAP	80	192	5
TAP	80	240	3
TAP	80	240	6
TAP	80	288	7
TAP	80	312	0
TAP	80	336	7
TAP	81	0	0
TAP	81	0	1
TAP	81	48	2
TAP	81	48	3
TAP	81	96	1
TAP	81	120	4
TAP	81	144	1
TAP	81	192	6
TAP	81	192	7
TAP	81	240	4
TAP	81	240	5
TAP	81	288	6
TAP	81	312	3
TAP	81	336	6
TAP	82	0	0
TAP	82	0	1
TAP	82	48	3
TAP	82	48	6
TAP	82	96	5
TAP	82	120	4
TAP	82	144	5
TAP	82	192	6
TAP	82	192	7
TAP	82	240	1
TAP	82	240	4
TAP	82	288	2
TAP	82	312	3
TAP	82	336	2
TAP	83	0	3
TAP	83	0	4
TAP	83	48	2
TAP	83	48	3
TAP	83	96	1
TAP	83	120	0
TAP	83	144	1
TAP	83	192	3
TAP	83	192	4
TAP	83	240	4
TAP	83	240	5
TAP	83	288	6
TAP	83	312	7
TAP	83	336	6
TAP	84	0	3
TAP	84	0	4
TAP	84	48	2
TAP	84	48	5
TAP	84	96	3
TAP	84	120	4
TAP	84	144	3
TAP	84	168	4
TAP	84	192	2
TAP	84	192	5
TAP	84	240	1
TAP	84	240	6
TAP	84	288	2
TAP	84	312	5
TAP	84	336	2
TAP	84	360	5
TAP	85	0	1
TAP	85	0	6
TAP	85	48	0
TAP	85	48	7
TAP	85	96	1
TAP	85	120	6
TAP	85	144	1
TAP	85	168	6
STR	85	192	0
SCR	85	192	0	96	48	3
STR	85	192	7
SCL	85	192	7	96	48	4
BRK	85	288	0
BRK	85	288	7
TAP	86	0	3
TAP	86	0	4
TAP	86	48	2
TAP	86	48	5
TAP	86	96	3
TAP	86	120	4
TAP	86	144	1
TAP	86	168	6
TAP	86	192	2
TAP	86	192	5
TAP	86	240	1
TAP	86	240	6
TAP	86	288	2
TAP	86	312	5
TAP	86	336	0
TAP	86	360	7
TAP	87	0	1
TAP	87	0	6
TAP	87	48	0
TAP	87	48	7
TAP	87	96	1
TAP	87	120	4
TAP	87	144	3
TAP	87	168	6
BRK	87	192	0
BRK	87	192	7

T_REC_TAP	760
T_REC_BRK	24
T_REC_XTP	0
T_REC_HLD	26
T_REC_XHO	0
T_REC_STR	68
T_REC_BST	0
T_REC_XST	0
T_REC_TTP	0
T_REC_THO	0
T_REC_SLD	68
T_REC_ALL	946
T_NUM_TAP	828
T_NUM_BRK	24
T_NUM_HLD	26
T_NUM_SLD	68
T_NUM_ALL	946
T_JUDGE_TAP	852
T_JUDGE_HLD	65
T_JUDGE_SLD	68
T_JUDGE_ALL	985
TTM_EACHPAIRS	189
TTM_SCR_TAP	414000
TTM_SCR_BRK	62400
TTM_SCR_HLD	26000
TTM_SCR_SLD	102000
TTM_SCR_ALL	604400
TTM_SCR_S	583950
TTM_SCR_SS	602000
TTM_RAT_ACV	10039

