VERSION	0.00.00	1.03.00
FES_MODE	0
BPM_DEF	162.000	162.000	162.000	162.000
MET_DEF	4	4
RESOLUTION	384
CLK_DEF	384
COMPATIBLE_CODE	MA2

BPM	0	0	162.000
MET	0	0	4	4

TAP	1	0	3
TAP	1	0	4
TAP	1	48	3
TAP	1	48	4
TAP	1	96	6
TAP	1	144	6
TAP	1	192	3
TAP	1	192	4
TAP	1	240	3
TAP	1	240	4
TAP	1	288	1
TAP	1	336	1
TAP	2	0	3
TAP	2	0	4
TAP	2	48	3
TAP	2	48	4
TAP	2	96	6
TAP	2	144	6
TAP	2	192	3
TAP	2	192	4
BRK	2	288	1
BRK	2	288	6
TAP	3	0	5
TAP	3	48	3
TAP	3	96	4
TAP	3	192	2
TAP	3	240	4
TAP	3	288	3
TAP	4	0	1
TAP	4	48	4
TAP	4	96	3
TAP	4	192	1
TAP	4	240	3
TAP	4	288	2
TAP	5	0	5
TAP	5	48	3
TAP	5	96	4
TAP	5	192	2
TAP	5	240	4
TAP	5	288	3
TAP	6	0	1
TAP	6	48	4
TAP	6	96	3
TAP	6	192	7
TAP	6	240	7
TAP	6	288	7
TAP	6	336	7
TAP	7	0	2
TAP	7	48	4
TAP	7	96	3
TAP	7	192	5
TAP	7	240	3
TAP	7	288	4
TAP	8	0	6
TAP	8	48	3
TAP	8	96	4
TAP	8	192	6
TAP	8	240	4
TAP	8	288	5
TAP	9	0	2
TAP	9	48	4
TAP	9	96	3
TAP	9	192	5
TAP	9	240	3
TAP	9	288	4
TAP	10	0	6
TAP	10	48	3
TAP	10	96	4
STR	10	192	0
SI_	10	192	0	96	48	4
HLD	11	0	7	72
HLD	11	72	6	72
HLD	11	144	5	96
TAP	11	240	4
TAP	11	288	4
HLD	12	0	0	72
HLD	12	72	1	72
HLD	12	144	2	96
TAP	12	240	3
TAP	12	288	3
HLD	13	0	7	72
HLD	13	72	6	72
HLD	13	144	5	96
TAP	13	240	4
TAP	13	288	4
STR	14	0	0
SI_	14	0	0	96	96	4
STR	14	0	1
SI_	14	0	1	96	96	4
HLD	15	0	3	72
HLD	15	72	2	72
HLD	15	144	1	96
TAP	15	240	0
TAP	15	288	0
HLD	16	0	4	72
HLD	16	72	5	72
HLD	16	144	6	96
TAP	16	240	7
TAP	16	288	7
HLD	17	0	3	72
HLD	17	72	2	72
HLD	17	144	1	96
TAP	17	240	0
TAP	17	288	0
HLD	18	0	4	72
HLD	18	72	5	72
HLD	18	144	6	96
TAP	18	240	7
TAP	18	288	7
TAP	19	0	5
TAP	19	48	3
TAP	19	96	2
TAP	19	144	3
TAP	19	192	6
TAP	19	240	4
TAP	19	288	5
TAP	20	0	1
TAP	20	48	4
TAP	20	96	5
TAP	20	144	4
TAP	20	192	2
TAP	20	240	3
TAP	20	288	2
TAP	21	0	5
TAP	21	48	3
TAP	21	96	2
TAP	21	144	3
TAP	21	192	6
TAP	21	240	4
TAP	21	288	5
TAP	22	0	2
TAP	22	48	3
TAP	22	96	1
HLD	22	192	7	72
HLD	22	264	6	72
STR	22	336	5
SCR	22	336	5	96	240	3
TAP	24	0	6
TAP	24	48	3
TAP	24	96	2
TAP	24	144	3
TAP	24	192	5
TAP	24	240	4
TAP	24	288	5
TAP	25	0	2
TAP	25	48	4
TAP	25	96	5
TAP	25	144	4
TAP	25	192	1
TAP	25	240	3
TAP	25	288	2
TAP	26	0	5
TAP	26	48	4
TAP	26	96	6
STR	26	192	0
SI_	26	192	0	96	48	4
TAP	26	240	0
HLD	27	0	6	72
HLD	27	72	5	72
TAP	27	144	4
TAP	27	240	0
TAP	27	288	0
HLD	28	0	1	72
HLD	28	72	2	72
TAP	28	144	3
TAP	28	240	7
TAP	28	288	7
HLD	29	0	6	72
HLD	29	72	5	72
TAP	29	144	4
TAP	29	240	0
TAP	29	288	0
STR	30	0	1
SV_	30	0	1	96	144	2
STR	30	0	6
SV_	30	0	6	96	144	5
HLD	31	0	5	72
HLD	31	72	6	72
TAP	31	144	7
TAP	31	240	3
TAP	31	288	3
TAP	31	288	4
HLD	32	0	2	72
HLD	32	72	1	72
TAP	32	144	0
TAP	32	240	4
TAP	32	288	3
TAP	32	288	4
HLD	33	0	5	72
HLD	33	72	6	72
TAP	33	144	7
TAP	33	240	3
TAP	33	288	3
TAP	33	288	4
HLD	34	0	2	72
HLD	34	72	1	72
TAP	34	144	0
TAP	34	192	0
TAP	34	192	7
TAP	34	336	6
STR	35	0	6
SI_	35	0	6	96	48	3
TAP	35	144	1
STR	35	192	1
SI_	35	192	1	96	48	4
TAP	35	336	7
STR	36	0	7
SI_	36	0	7	96	48	3
TAP	36	144	0
STR	36	192	0
SI_	36	192	0	96	48	4
TAP	36	336	6
STR	37	0	6
SI_	37	0	6	96	48	3
TAP	37	144	1
STR	37	192	1
SI_	37	192	1	96	48	4
TAP	37	336	7
STR	38	0	7
SSR	38	0	7	96	192	3
TAP	38	336	1
STR	39	0	1
SI_	39	0	1	96	48	4
TAP	39	144	6
STR	39	192	6
SI_	39	192	6	96	48	3
TAP	39	336	0
STR	40	0	0
SI_	40	0	0	96	48	4
TAP	40	144	7
STR	40	192	7
SI_	40	192	7	96	48	3
TAP	40	336	0
HLD	41	0	0	72
HLD	41	72	1	72
TAP	41	144	2
TAP	41	240	1
TAP	41	240	4
TAP	41	336	7
HLD	42	0	7	72
HLD	42	72	6	72
TAP	42	144	5
BRK	42	240	3
BRK	42	240	6
TAP	42	336	1
HLD	43	0	1	72
HLD	43	72	0	72
TAP	43	144	7
TAP	43	240	5
STR	43	288	5
SCR	43	288	5	96	96	2
TAP	44	192	1
TAP	44	192	6
TAP	44	336	6
HLD	45	0	6	72
HLD	45	72	7	72
TAP	45	144	0
TAP	45	240	2
STR	45	288	2
SCL	45	288	2	96	96	5
TAP	46	192	1
TAP	46	192	6
TAP	46	336	0
HLD	47	0	0	72
HLD	47	72	1	72
TAP	47	144	2
TAP	47	240	4
STR	47	288	4
SUL	47	288	4	96	96	3
TAP	48	192	0
TAP	48	192	5
TAP	48	336	6
TAP	48	336	7
STR	49	0	6
SI_	49	0	6	96	48	3
STR	49	0	7
SI_	49	0	7	96	48	2
TAP	49	192	0
TAP	49	192	5
TAP	49	336	0
TAP	49	336	1
STR	50	0	0
SI_	50	0	0	96	48	5
STR	50	0	1
SI_	50	0	1	96	48	4
TAP	50	192	2
TAP	50	192	7
TAP	50	336	6
HLD	51	0	6	72
HLD	51	72	7	72
TAP	51	144	0
TAP	51	240	2
STR	51	288	2
SCR	51	288	2	96	96	7
TAP	52	192	0
TAP	52	192	5
TAP	52	336	1
HLD	53	0	1	72
HLD	53	72	0	72
TAP	53	144	7
TAP	53	240	5
STR	53	288	5
SCL	53	288	5	96	96	0
TAP	54	192	2
TAP	54	192	7
TAP	54	336	7
HLD	55	0	7	72
HLD	55	72	6	72
TAP	55	144	5
TAP	55	240	3
STR	55	288	3
SUR	55	288	3	96	96	4
TAP	56	192	2
TAP	56	192	7
TAP	56	336	0
TAP	56	336	1
STR	57	0	0
SI_	57	0	0	96	48	4
STR	57	0	1
SI_	57	0	1	96	48	3
TAP	57	192	2
TAP	57	192	6
TAP	57	336	6
TAP	57	336	7
STR	58	0	6
SI_	58	0	6	96	48	4
STR	58	0	7
SI_	58	0	7	96	48	3
TAP	58	192	1
TAP	58	192	5
TAP	59	0	3
TAP	59	0	6
TAP	59	48	3
TAP	59	48	6
TAP	59	288	1
TAP	59	288	4
TAP	59	336	1
TAP	59	336	4
STR	60	192	0
SI_	60	192	0	96	48	3
STR	60	192	7
SI_	60	192	7	96	48	4
TAP	61	0	2
TAP	61	0	5
TAP	61	48	2
TAP	61	48	5
TAP	61	288	0
TAP	61	288	7
TAP	61	336	0
TAP	61	336	7
HLD	62	192	5	72
HLD	62	264	4	72
TAP	62	336	3
HLD	63	0	2	96
HLD	63	96	3	96
HLD	63	192	4	96
HLD	63	288	5	96
HLD	64	0	4	96
HLD	64	96	3	96
HLD	64	192	2	96
HLD	64	288	1	96
HLD	65	0	3	96
HLD	65	96	5	96
HLD	65	192	7	96
TAP	65	288	0
TAP	66	0	0
TAP	66	0	7
TAP	66	48	0
TAP	66	48	7
TAP	66	96	0
TAP	66	96	7
TAP	66	144	0
TAP	66	144	7
TAP	66	192	1
TAP	66	192	6
TAP	66	240	1
TAP	66	240	6
BRK	66	288	1
BRK	66	288	6
HLD	67	0	7	72
HLD	67	72	6	72
TAP	67	144	5
TAP	67	240	1
TAP	67	288	1
TAP	67	336	3
HLD	68	0	3	72
HLD	68	72	2	72
TAP	68	144	1
TAP	68	192	1
TAP	68	288	7
TAP	68	336	7
HLD	69	0	0	72
HLD	69	72	1	72
TAP	69	144	2
TAP	69	192	7
TAP	69	240	7
TAP	69	288	0
TAP	69	336	0
HLD	70	0	6	72
HLD	70	72	5	72
TAP	70	144	4
TAP	70	192	4
TAP	70	336	2
HLD	71	0	2	72
HLD	71	72	3	72
TAP	71	144	4
TAP	71	240	6
TAP	71	288	6
TAP	71	336	4
HLD	72	0	4	72
HLD	72	72	3	72
TAP	72	144	2
TAP	72	192	2
TAP	72	336	6
TAP	72	336	7
STR	73	0	6
SCL	73	0	6	96	48	3
STR	73	0	7
SCR	73	0	7	96	48	2
TAP	73	192	1
TAP	73	192	5
TAP	73	336	0
TAP	73	336	1
STR	74	0	0
SCL	74	0	0	96	48	5
STR	74	0	1
SCR	74	0	1	96	48	4
TAP	74	192	2
TAP	74	192	6
BRK	74	288	0
BRK	74	288	4
TAP	75	0	2
TAP	75	24	3
TAP	75	48	2
TAP	75	72	3
TAP	75	144	5
TAP	75	168	4
TAP	75	192	5
TAP	75	216	4
BRK	75	288	1
BRK	75	288	6
TAP	76	0	6
TAP	76	48	0
TAP	76	96	1
TAP	76	144	0
TAP	76	192	5
TAP	76	240	7
TAP	76	288	6
TAP	76	336	6
TAP	77	0	2
TAP	77	48	7
TAP	77	96	6
TAP	77	144	7
TAP	77	192	1
TAP	77	240	0
TAP	77	288	1
TAP	77	336	1
TAP	78	0	6
TAP	78	48	0
TAP	78	96	1
TAP	78	144	0
TAP	78	192	5
TAP	78	240	7
TAP	78	288	6
TAP	78	336	6
TAP	79	0	1
TAP	79	48	0
TAP	79	96	2
TAP	79	192	7
TAP	79	240	7
TAP	79	288	7
TAP	79	336	7
TAP	80	0	1
TAP	80	48	7
TAP	80	96	6
TAP	80	144	7
TAP	80	192	2
TAP	80	240	0
TAP	80	288	1
TAP	80	336	1
TAP	81	0	5
TAP	81	48	0
TAP	81	96	1
TAP	81	144	0
TAP	81	192	6
TAP	81	240	7
TAP	81	288	6
TAP	81	336	6
TAP	82	0	1
TAP	82	48	7
TAP	82	96	6
TAP	82	144	7
TAP	82	192	2
TAP	82	240	0
TAP	82	288	1
TAP	82	336	1
TAP	83	0	6
TAP	83	48	7
TAP	83	96	5
TAP	83	144	5
TAP	83	192	1
TAP	83	240	0
TAP	83	288	2
TAP	84	0	0
TAP	84	0	7
TAP	84	48	0
TAP	84	48	7
TAP	84	96	2
TAP	84	144	2
TAP	84	192	0
TAP	84	192	7
TAP	84	240	0
TAP	84	240	7
TAP	84	288	5
TAP	84	336	5
TAP	85	0	0
TAP	85	0	7
TAP	85	48	0
TAP	85	48	7
TAP	85	96	2
TAP	85	144	2
TAP	85	192	3
TAP	85	192	4
TAP	85	288	1
TAP	85	288	6
TAP	86	0	0
TAP	86	0	7
TAP	86	48	0
TAP	86	48	7
TAP	86	96	5
TAP	86	144	5
TAP	86	192	0
TAP	86	192	7
TAP	86	240	0
TAP	86	240	7
TAP	86	288	2
TAP	86	336	2
TAP	87	0	0
TAP	87	0	7
TAP	87	48	0
TAP	87	48	7
TAP	87	96	5
TAP	87	144	5
TAP	87	192	3
TAP	87	192	4

T_REC_TAP	381
T_REC_BRK	10
T_REC_XTP	0
T_REC_HLD	78
T_REC_XHO	0
T_REC_STR	38
T_REC_BST	0
T_REC_XST	0
T_REC_TTP	0
T_REC_THO	0
T_REC_SLD	38
T_REC_ALL	545
T_NUM_TAP	419
T_NUM_BRK	10
T_NUM_HLD	78
T_NUM_SLD	38
T_NUM_ALL	545
T_JUDGE_TAP	429
T_JUDGE_HLD	156
T_JUDGE_SLD	38
T_JUDGE_ALL	623
TTM_EACHPAIRS	73
TTM_SCR_TAP	209500
TTM_SCR_BRK	26000
TTM_SCR_HLD	78000
TTM_SCR_SLD	57000
TTM_SCR_ALL	370500
TTM_SCR_S	358450
TTM_SCR_SS	369500
TTM_RAT_ACV	10027

