VERSION	0.00.00	1.03.00
FES_MODE	0
BPM_DEF	162.000	162.000	162.000	162.000
MET_DEF	4	4
RESOLUTION	384
CLK_DEF	384
COMPATIBLE_CODE	MA2

BPM	0	0	162.000
MET	0	0	4	4

TAP	1	0	0
TAP	1	0	7
TAP	1	192	1
TAP	1	192	6
TAP	2	0	2
TAP	2	0	5
TAP	2	192	3
TAP	2	192	4
TAP	3	0	2
TAP	3	96	3
TAP	3	192	2
TAP	3	288	3
TAP	4	0	5
TAP	4	96	4
TAP	4	192	5
TAP	4	288	4
TAP	5	0	1
TAP	5	96	0
TAP	5	192	1
TAP	5	288	0
TAP	6	0	7
TAP	6	96	6
BRK	6	192	0
BRK	6	192	7
TAP	7	0	6
TAP	7	96	7
TAP	7	192	6
TAP	7	288	7
TAP	8	0	2
TAP	8	96	3
TAP	8	192	2
TAP	8	288	3
TAP	9	0	5
TAP	9	96	4
TAP	9	192	5
TAP	9	288	4
TAP	10	0	1
TAP	10	96	0
TAP	10	192	1
TAP	10	192	6
TAP	11	0	7
TAP	11	96	7
TAP	11	192	6
TAP	11	288	6
STR	12	0	5
SI_	12	0	5	96	144	2
TAP	13	0	3
TAP	13	96	3
TAP	13	192	2
TAP	13	288	2
STR	14	0	1
SI_	14	0	1	96	144	6
TAP	15	0	5
TAP	15	96	5
TAP	15	192	6
TAP	15	288	6
STR	16	0	7
SI_	16	0	7	96	144	4
TAP	17	0	3
TAP	17	96	3
TAP	17	192	2
TAP	17	288	2
TAP	18	0	1
TAP	18	96	1
TAP	18	192	0
TAP	18	192	7
TAP	19	0	1
TAP	19	96	0
TAP	19	192	1
TAP	19	288	0
TAP	20	0	6
TAP	20	96	7
TAP	20	192	6
TAP	20	288	7
TAP	21	0	3
TAP	21	96	4
TAP	21	192	3
TAP	21	288	4
TAP	22	0	2
TAP	22	96	5
TAP	22	192	3
TAP	22	192	4
TAP	23	0	6
TAP	23	96	7
TAP	23	192	6
TAP	23	288	7
TAP	24	0	1
TAP	24	96	0
TAP	24	192	1
TAP	24	288	0
TAP	25	0	4
TAP	25	96	3
TAP	25	192	4
TAP	25	288	3
TAP	26	0	5
TAP	26	96	2
TAP	26	192	1
TAP	26	192	6
TAP	27	0	0
TAP	27	96	0
TAP	27	192	1
TAP	27	288	1
STR	28	0	2
SI_	28	0	2	96	144	5
TAP	29	0	4
TAP	29	96	4
TAP	29	192	5
TAP	29	288	5
STR	30	0	6
SI_	30	0	6	96	144	1
TAP	31	0	2
TAP	31	96	2
TAP	31	192	1
TAP	31	288	1
STR	32	0	0
SI_	32	0	0	96	144	4
TAP	33	0	5
TAP	33	96	5
TAP	33	192	6
TAP	33	288	6
STR	34	0	0
SI_	34	0	0	96	144	3
STR	34	0	7
SI_	34	0	7	96	144	4
HLD	35	0	3	192
HLD	35	192	4	192
HLD	36	0	2	192
TAP	36	192	3
HLD	37	0	4	192
HLD	37	192	3	192
HLD	38	0	5	192
TAP	38	192	4
HLD	39	0	6	192
HLD	39	192	1	192
HLD	40	0	7	192
TAP	40	192	0
TAP	41	0	2
TAP	41	96	3
TAP	41	192	4
TAP	41	288	5
TAP	42	0	3
TAP	42	0	4
TAP	42	96	2
TAP	42	96	5
TAP	42	192	1
TAP	42	192	6
BRK	42	288	0
BRK	42	288	7
TAP	43	0	6
TAP	43	96	6
TAP	43	96	7
TAP	43	192	1
TAP	43	288	0
TAP	43	288	1
STR	44	0	0
SI_	44	0	0	96	144	4
TAP	45	0	5
TAP	45	96	4
TAP	45	96	5
TAP	45	192	6
TAP	45	288	6
TAP	45	288	7
STR	46	0	7
SI_	46	0	7	96	144	3
TAP	47	0	2
TAP	47	96	2
TAP	47	96	3
TAP	47	192	1
TAP	47	288	0
TAP	47	288	1
STR	48	0	0
SI_	48	0	0	96	144	3
STR	48	0	7
SI_	48	0	7	96	144	4
TAP	49	0	2
TAP	49	96	5
TAP	49	192	3
TAP	49	192	4
TAP	50	0	0
TAP	50	0	1
TAP	50	96	6
TAP	50	96	7
TAP	50	192	0
TAP	50	192	7
TAP	51	0	5
TAP	51	96	4
TAP	51	96	5
TAP	51	192	6
TAP	51	288	6
TAP	51	288	7
STR	52	0	7
SI_	52	0	7	96	144	3
TAP	53	0	2
TAP	53	96	2
TAP	53	96	3
TAP	53	192	1
TAP	53	288	0
TAP	53	288	1
STR	54	0	0
SI_	54	0	0	96	144	4
TAP	55	0	5
TAP	55	96	4
TAP	55	96	5
TAP	55	192	6
TAP	55	288	6
TAP	55	288	7
STR	56	0	0
SI_	56	0	0	96	144	3
STR	56	0	7
SI_	56	0	7	96	144	4
TAP	57	0	5
TAP	57	96	2
TAP	57	192	3
TAP	57	192	4
TAP	58	0	2
TAP	58	0	3
TAP	58	96	4
TAP	58	96	5
TAP	58	192	3
TAP	58	192	4
TAP	58	288	2
TAP	58	288	5
TAP	59	0	1
TAP	59	0	6
TAP	59	48	1
TAP	59	48	6
TAP	59	288	3
TAP	59	288	4
TAP	59	336	3
TAP	59	336	4
TAP	60	192	0
TAP	60	192	7
TAP	60	240	0
TAP	60	240	7
TAP	61	0	0
TAP	61	0	1
TAP	61	48	0
TAP	61	48	1
TAP	61	288	6
TAP	61	288	7
TAP	61	336	6
TAP	61	336	7
TAP	62	192	0
TAP	62	192	7
TAP	62	288	2
TAP	62	288	5
TAP	63	0	1
TAP	63	96	1
TAP	63	192	6
TAP	63	288	6
TAP	64	0	3
TAP	64	96	4
TAP	64	192	2
TAP	64	192	5
TAP	65	0	0
TAP	65	96	7
TAP	65	192	1
TAP	65	192	6
TAP	66	0	2
TAP	66	0	5
TAP	66	96	1
TAP	66	96	6
BRK	66	192	0
BRK	66	192	7
TAP	67	0	1
TAP	67	96	0
TAP	67	96	1
TAP	67	192	6
TAP	67	288	6
TAP	67	288	7
TAP	68	0	0
TAP	68	96	0
TAP	68	96	7
TAP	68	192	1
TAP	68	192	6
TAP	69	0	2
TAP	69	96	2
TAP	69	96	3
TAP	69	192	5
TAP	69	288	4
TAP	69	288	5
STR	70	0	6
SI_	70	0	6	96	144	2
TAP	71	0	5
TAP	71	96	4
TAP	71	96	5
TAP	71	192	2
TAP	71	288	2
TAP	71	288	3
STR	72	0	1
SI_	72	0	1	96	144	5
HLD	73	0	2	288
HLD	73	192	5	96
TAP	74	0	3
TAP	74	0	4
TAP	74	96	2
TAP	74	96	5
TAP	74	192	1
TAP	74	192	6
TAP	74	288	0
TAP	74	288	7
TAP	75	0	1
TAP	75	48	1
TAP	75	144	6
TAP	75	192	6
BRK	75	288	0
BRK	75	288	7
TAP	76	0	2
TAP	76	96	4
TAP	76	192	2
TAP	76	288	4
TAP	77	0	5
TAP	77	96	3
TAP	77	192	5
TAP	77	288	3
TAP	78	0	6
TAP	78	96	0
TAP	78	192	6
TAP	78	288	0
TAP	79	0	1
TAP	79	96	6
BRK	79	192	0
BRK	79	192	7
TAP	80	0	6
TAP	80	96	7
TAP	80	192	0
TAP	80	288	0
TAP	80	288	1
TAP	81	0	2
TAP	81	96	3
TAP	81	192	4
TAP	81	288	4
TAP	81	288	5
TAP	82	0	6
TAP	82	96	7
TAP	82	192	6
TAP	82	288	0
TAP	82	288	7
TAP	83	0	1
TAP	83	96	0
TAP	83	192	1
TAP	83	288	0
TAP	83	288	7
TAP	84	0	0
TAP	84	0	1
TAP	84	96	0
TAP	84	96	1
TAP	84	192	6
TAP	84	192	7
TAP	84	288	6
TAP	84	288	7
TAP	85	0	0
TAP	85	0	7
TAP	85	96	0
TAP	85	96	7
TAP	85	192	1
TAP	85	192	6
TAP	86	0	2
TAP	86	0	3
TAP	86	96	2
TAP	86	96	3
TAP	86	192	4
TAP	86	192	5
TAP	86	288	4
TAP	86	288	5
TAP	87	0	3
TAP	87	0	4
TAP	87	96	3
TAP	87	96	4
BRK	87	192	1
BRK	87	192	6

T_REC_TAP	312
T_REC_BRK	12
T_REC_XTP	0
T_REC_HLD	11
T_REC_XHO	0
T_REC_STR	18
T_REC_BST	0
T_REC_XST	0
T_REC_TTP	0
T_REC_THO	0
T_REC_SLD	18
T_REC_ALL	371
T_NUM_TAP	330
T_NUM_BRK	12
T_NUM_HLD	11
T_NUM_SLD	18
T_NUM_ALL	371
T_JUDGE_TAP	342
T_JUDGE_HLD	44
T_JUDGE_SLD	18
T_JUDGE_ALL	404
TTM_EACHPAIRS	86
TTM_SCR_TAP	165000
TTM_SCR_BRK	31200
TTM_SCR_HLD	11000
TTM_SCR_SLD	27000
TTM_SCR_ALL	234200
TTM_SCR_S	226050
TTM_SCR_SS	233000
TTM_RAT_ACV	10051

