VERSION	0.00.00	1.03.00
FES_MODE	0
BPM_DEF	162.000	162.000	162.000	162.000
MET_DEF	4	4
RESOLUTION	384
CLK_DEF	384
COMPATIBLE_CODE	MA2

BPM	0	0	162.000
MET	0	0	4	4

TAP	3	0	1
TAP	3	192	1
TAP	4	0	1
TAP	4	192	1
TAP	5	0	0
TAP	5	192	0
TAP	6	0	0
TAP	6	192	0
TAP	7	0	7
TAP	7	192	7
TAP	8	0	7
TAP	8	192	7
TAP	9	0	6
TAP	9	192	6
TAP	10	0	6
TAP	10	192	6
TAP	11	0	5
TAP	11	192	5
TAP	12	0	5
TAP	12	96	5
TAP	12	192	5
TAP	13	0	4
TAP	13	192	4
TAP	14	0	4
TAP	14	96	4
TAP	14	192	4
TAP	15	0	3
TAP	15	192	3
TAP	16	0	3
TAP	16	96	3
TAP	16	192	3
TAP	17	0	2
TAP	17	192	2
TAP	18	0	2
TAP	18	96	2
TAP	18	192	2
TAP	19	0	1
TAP	19	192	1
TAP	20	0	0
TAP	20	192	0
TAP	21	0	7
TAP	21	192	7
TAP	22	0	0
TAP	22	192	0
TAP	22	192	7
TAP	23	0	6
TAP	23	192	6
TAP	24	0	7
TAP	24	192	7
TAP	25	0	0
TAP	25	192	0
TAP	26	0	7
BRK	26	192	0
BRK	26	192	7
TAP	27	0	0
TAP	27	192	0
TAP	28	0	1
TAP	28	96	1
TAP	28	192	1
TAP	29	0	2
TAP	29	192	2
TAP	30	0	3
TAP	30	96	3
TAP	30	192	3
TAP	31	0	4
TAP	31	192	4
TAP	32	0	5
TAP	32	96	5
TAP	32	192	5
TAP	33	0	6
TAP	33	192	6
TAP	34	0	7
TAP	34	96	7
TAP	34	192	7
HLD	35	0	0	192
HLD	36	0	1	192
HLD	37	0	0	192
HLD	38	0	0	192
HLD	38	0	7	192
HLD	39	0	7	192
HLD	40	0	6	192
HLD	41	0	7	192
BRK	42	0	7
TAP	43	0	0
TAP	43	192	0
TAP	43	192	1
TAP	44	0	1
TAP	44	96	1
TAP	44	192	1
TAP	45	0	1
TAP	45	192	1
TAP	46	0	2
TAP	46	96	2
TAP	46	192	2
TAP	47	0	2
TAP	47	192	2
TAP	47	192	3
TAP	48	0	3
TAP	48	96	3
TAP	48	192	3
TAP	49	0	4
TAP	49	96	4
TAP	49	192	4
TAP	50	0	3
TAP	50	96	3
BRK	50	192	3
TAP	51	0	4
TAP	51	192	4
TAP	51	192	5
TAP	52	0	5
TAP	52	96	5
TAP	52	192	5
TAP	53	0	5
TAP	53	192	5
TAP	54	0	6
TAP	54	96	6
TAP	54	192	6
TAP	55	0	6
TAP	55	192	6
TAP	55	192	7
TAP	56	0	7
TAP	56	96	7
TAP	56	192	7
TAP	57	0	0
TAP	57	96	0
TAP	57	192	0
TAP	58	0	7
TAP	58	96	7
BRK	58	192	7
STR	59	0	0
SI_	59	0	0	96	288	3
STR	61	0	4
SI_	61	0	4	96	288	7
STR	63	0	0
SI_	63	0	0	96	288	3
STR	65	0	4
SI_	65	0	4	96	288	7
TAP	67	0	1
TAP	67	96	1
TAP	67	192	1
TAP	68	0	2
TAP	68	96	2
TAP	68	192	2
TAP	68	192	3
TAP	69	0	4
TAP	69	96	4
TAP	69	192	4
TAP	70	0	5
TAP	70	96	5
TAP	70	192	4
TAP	70	192	5
TAP	71	0	6
TAP	71	96	6
TAP	71	192	6
TAP	72	0	7
TAP	72	96	7
TAP	72	192	0
TAP	72	192	7
TAP	73	0	0
TAP	73	96	0
TAP	73	192	0
TAP	74	0	0
TAP	74	0	7
TAP	74	96	0
TAP	74	96	7
BRK	74	192	0
BRK	74	192	7
TAP	76	0	7
TAP	76	96	7
TAP	76	192	6
TAP	77	0	5
TAP	77	96	5
TAP	77	192	4
TAP	78	0	3
TAP	78	96	3
TAP	78	192	2
TAP	79	0	1
TAP	79	96	1
TAP	79	192	0
TAP	80	0	0
TAP	80	96	0
TAP	80	192	1
TAP	81	0	2
TAP	81	96	2
TAP	81	192	3
TAP	82	0	4
TAP	82	96	4
TAP	82	192	5
TAP	83	0	6
TAP	83	96	6
TAP	83	192	7
TAP	84	0	0
TAP	84	0	1
TAP	84	96	0
TAP	84	96	1
TAP	84	192	0
TAP	84	192	1
TAP	85	0	6
TAP	85	0	7
TAP	85	96	6
TAP	85	96	7
TAP	85	192	6
TAP	85	192	7
TAP	86	0	0
TAP	86	0	7
TAP	86	96	0
TAP	86	96	7
TAP	86	192	0
TAP	86	192	7
TAP	87	0	1
TAP	87	0	6
TAP	87	96	1
TAP	87	96	6
TAP	87	192	1
TAP	87	192	6

T_REC_TAP	192
T_REC_BRK	7
T_REC_XTP	0
T_REC_HLD	8
T_REC_XHO	0
T_REC_STR	4
T_REC_BST	0
T_REC_XST	0
T_REC_TTP	0
T_REC_THO	0
T_REC_SLD	4
T_REC_ALL	215
T_NUM_TAP	196
T_NUM_BRK	7
T_NUM_HLD	8
T_NUM_SLD	4
T_NUM_ALL	215
T_JUDGE_TAP	203
T_JUDGE_HLD	32
T_JUDGE_SLD	4
T_JUDGE_ALL	239
TTM_EACHPAIRS	25
TTM_SCR_TAP	98000
TTM_SCR_BRK	18200
TTM_SCR_HLD	8000
TTM_SCR_SLD	6000
TTM_SCR_ALL	130200
TTM_SCR_S	125650
TTM_SCR_SS	129500
TTM_RAT_ACV	10054

