VERSION	0.00.00	1.03.00
FES_MODE	0
BPM_DEF	180.000	180.000	180.000	120.000
MET_DEF	4	4
RESOLUTION	384
CLK_DEF	384
COMPATIBLE_CODE	MA2

BPM	0	0	180.000
BPM	55	0	120.000
BPM	58	288	180.000
MET	0	0	4	4
MET	58	0	4	3
MET	58	288	4	4

TAP	2	0	7
TAP	2	48	6
TAP	2	96	5
TAP	2	192	0
TAP	2	240	1
TAP	2	288	2
TAP	3	0	6
TAP	3	48	5
TAP	3	96	4
TAP	3	144	3
TAP	3	192	2
BRK	3	240	0
BRK	3	240	6
BRK	3	288	1
BRK	3	288	7
TAP	4	0	0
TAP	4	48	1
TAP	4	96	2
TAP	4	192	7
TAP	4	240	6
TAP	4	288	5
TAP	5	0	1
TAP	5	48	2
TAP	5	96	3
TAP	5	144	4
TAP	5	192	5
BRK	5	240	1
BRK	5	240	7
BRK	5	288	0
BRK	5	288	6
TAP	6	0	7
TAP	6	48	6
TAP	6	96	5
TAP	6	192	0
TAP	6	240	1
TAP	6	288	2
TAP	6	336	3
TAP	7	0	6
TAP	7	48	5
TAP	7	96	4
TAP	7	144	3
TAP	7	192	2
BRK	7	240	0
BRK	7	240	6
BRK	7	288	1
BRK	7	288	7
TAP	8	0	5
TAP	8	48	6
TAP	8	96	7
TAP	8	192	4
TAP	8	240	4
TAP	8	288	2
TAP	8	336	2
STR	9	0	0
SV_	9	0	0	96	48	2
STR	9	144	7
SV_	9	144	7	96	48	5
STR	9	288	1
SV_	9	288	1	96	48	3
STR	10	48	6
SV_	10	48	6	96	48	4
STR	10	192	2
SV_	10	192	2	96	48	5
BRK	11	0	7
TAP	11	96	6
TAP	11	144	6
TAP	11	240	4
TAP	11	240	5
TAP	11	336	1
TAP	11	336	4
STR	12	48	7
SSR	12	48	7	96	96	3
HLD	13	0	0	96
TAP	13	96	1
TAP	13	144	1
TAP	13	240	2
TAP	13	240	3
TAP	13	336	3
TAP	13	336	6
STR	14	48	1
SSR	14	48	1	96	96	5
TAP	15	0	2
TAP	15	0	3
TAP	15	96	5
TAP	15	144	5
TAP	15	240	2
TAP	15	240	7
TAP	15	336	0
TAP	15	336	5
TAP	16	48	2
TAP	16	48	7
TAP	16	144	6
TAP	16	192	5
TAP	16	240	4
TAP	16	336	2
TAP	16	360	3
HLD	17	0	1	192
STR	17	192	3
SCR	17	192	3	96	48	5
STR	18	0	4
SCL	18	0	4	96	48	2
STR	18	192	3
SCR	18	192	3	96	48	6
STR	19	0	4
SCL	19	0	4	96	48	1
BRK	19	288	3
BRK	19	288	5
TAP	20	0	4
TAP	20	0	5
HLD	20	96	1	72
TAP	20	168	2
TAP	20	192	1
TAP	20	240	0
TAP	20	288	7
TAP	20	336	6
TAP	21	0	2
TAP	21	0	3
HLD	21	96	6	72
TAP	21	168	5
TAP	21	192	6
TAP	21	240	7
TAP	21	288	0
TAP	21	336	1
TAP	22	0	6
TAP	22	0	7
HLD	22	96	2	72
TAP	22	168	1
TAP	22	192	2
TAP	22	240	3
TAP	22	288	4
TAP	22	336	5
TAP	23	0	0
TAP	23	0	1
HLD	23	96	5	72
TAP	23	168	6
TAP	23	192	5
TAP	23	240	4
TAP	23	288	3
TAP	23	336	2
TAP	24	0	2
TAP	24	0	3
HLD	24	96	0	72
TAP	24	168	1
TAP	24	192	0
TAP	24	240	1
TAP	24	288	2
TAP	24	336	3
TAP	25	0	4
TAP	25	0	5
HLD	25	96	7	72
TAP	25	168	6
TAP	25	192	7
TAP	25	240	6
TAP	25	288	5
TAP	25	336	4
STR	26	0	0
SI_	26	0	0	96	48	5
TAP	26	48	0
STR	26	96	7
SI_	26	96	7	96	48	2
STR	26	192	1
SI_	26	192	1	96	48	4
STR	26	288	6
SI_	26	288	6	96	48	3
STR	27	0	2
SI_	27	0	2	96	48	7
STR	27	96	3
SI_	27	96	3	96	48	6
TAP	27	336	6
TAP	27	360	7
TAP	28	0	6
TAP	28	48	0
TAP	28	96	2
TAP	28	120	3
TAP	28	144	2
TAP	28	168	3
TAP	28	192	2
TAP	28	288	3
TAP	28	288	4
STR	29	0	2
SUL	29	0	2	96	48	5
STR	29	96	6
SCR	29	96	6	96	48	1
TAP	29	336	1
TAP	29	360	0
TAP	30	0	1
TAP	30	48	7
TAP	30	96	5
TAP	30	120	4
TAP	30	144	5
TAP	30	168	4
TAP	30	192	5
TAP	30	264	3
TAP	30	288	4
STR	31	0	5
SUR	31	0	5	96	48	2
STR	31	96	1
SCL	31	96	1	96	48	6
TAP	31	336	6
TAP	31	360	7
TAP	32	0	6
TAP	32	48	0
TAP	32	48	5
TAP	32	96	1
TAP	32	120	0
TAP	32	144	1
TAP	32	192	2
TAP	32	192	7
TAP	32	288	0
TAP	32	288	7
TAP	33	0	5
TAP	33	48	4
TAP	33	96	3
TAP	33	144	2
TAP	33	192	1
STR	33	240	0
SI_	33	240	0	96	48	6
BRK	33	336	0
STR	34	48	3
SI_	34	48	3	96	48	6
BRK	34	144	3
STR	34	240	1
SI_	34	240	1	96	48	6
BRK	34	336	1
STR	35	48	4
SI_	35	48	4	96	48	6
BRK	35	144	4
STR	35	240	2
SI_	35	240	2	96	48	6
BRK	35	336	2
TAP	36	96	1
TAP	36	192	1
TAP	36	288	1
TAP	37	0	6
TAP	37	0	7
TAP	37	48	6
TAP	37	72	7
TAP	37	96	5
TAP	37	192	3
TAP	37	216	4
TAP	37	240	3
TAP	37	264	4
TAP	37	288	3
TAP	37	312	4
TAP	37	336	3
TAP	37	360	4
TAP	38	0	2
TAP	38	48	1
TAP	38	96	0
TAP	38	192	0
TAP	38	240	1
TAP	38	288	2
TAP	38	336	7
TAP	39	0	7
TAP	39	48	5
TAP	39	96	5
STR	39	144	3
SCL	39	144	3	96	48	1
STR	39	192	3
SCR	39	192	3	96	48	5
TAP	40	0	4
TAP	40	48	5
TAP	40	96	6
TAP	40	192	7
TAP	40	240	6
TAP	40	288	5
TAP	40	336	4
TAP	41	0	1
TAP	41	24	0
TAP	41	48	1
TAP	41	72	0
TAP	41	96	1
STR	41	144	4
SCR	41	144	4	96	48	6
STR	41	192	4
SCL	41	192	4	96	48	2
TAP	42	0	0
TAP	42	48	1
TAP	42	96	2
TAP	42	192	7
TAP	42	240	7
TAP	42	288	1
TAP	42	336	3
TAP	43	0	3
TAP	43	48	5
TAP	43	96	5
STR	43	144	7
SI_	43	144	7	96	48	5
STR	43	192	7
SI_	43	192	7	96	48	2
TAP	44	0	7
TAP	44	48	6
TAP	44	96	5
TAP	44	192	0
TAP	44	240	0
TAP	44	288	6
TAP	44	336	4
TAP	45	0	4
TAP	45	48	2
TAP	45	96	2
STR	45	144	0
SI_	45	144	0	96	48	2
STR	45	192	0
SI_	45	192	0	96	48	5
TAP	46	0	0
TAP	46	48	1
TAP	46	96	0
TAP	46	96	2
TAP	46	192	7
TAP	46	240	6
TAP	46	288	5
TAP	46	288	7
TAP	47	0	1
TAP	47	48	0
TAP	47	96	7
STR	47	144	6
SI_	47	144	6	96	48	3
STR	47	192	6
SI_	47	192	6	96	48	0
TAP	48	0	7
TAP	48	48	6
TAP	48	96	5
TAP	48	96	7
TAP	48	192	0
TAP	48	240	1
TAP	48	288	0
TAP	48	288	2
TAP	49	0	2
TAP	49	24	3
TAP	49	48	2
TAP	49	72	3
TAP	49	96	2
STR	49	144	1
SI_	49	144	1	96	48	4
STR	49	192	1
SI_	49	192	1	96	48	7
TAP	50	0	1
TAP	50	48	2
TAP	50	96	1
TAP	50	96	3
TAP	50	192	6
TAP	50	240	5
TAP	50	288	4
TAP	50	288	6
TAP	51	0	7
TAP	51	48	6
TAP	51	96	5
STR	51	144	4
SI_	51	144	4	96	48	6
STR	51	192	3
SI_	51	192	3	96	48	1
TAP	52	0	6
TAP	52	48	5
TAP	52	96	4
TAP	52	96	6
TAP	52	192	2
TAP	52	240	1
TAP	52	288	0
TAP	52	336	7
STR	53	0	7
SUR	53	0	7	96	48	6
STR	53	144	0
SUL	53	144	0	96	48	1
STR	53	288	6
SUR	53	288	6	96	48	5
STR	54	48	1
SUL	54	48	1	96	48	2
STR	54	192	4
SUR	54	192	4	96	48	3
HLD	55	0	1	192
HLD	55	192	2	144
TAP	55	336	3
HLD	56	0	4	96
HLD	56	96	5	96
HLD	56	192	6	96
STR	56	288	7
SCL	56	288	7	96	192	1
HLD	57	192	0	96
TAP	57	288	2
TAP	57	336	4
TAP	58	0	5
TAP	58	96	3
TAP	58	128	5
TAP	58	160	2
TAP	58	192	6
TAP	58	224	1
TAP	58	256	7
HLD	58	288	0	192
HLD	59	96	6	144
TAP	59	240	7
TAP	59	288	7
TAP	60	0	1
TAP	60	0	7
TAP	60	96	0
TAP	60	96	6
TAP	60	192	2
TAP	60	192	7
STR	60	288	0
SCR	60	288	0	96	48	2
STR	60	288	5
SCR	60	288	5	96	48	7
STR	61	96	2
SCL	61	96	2	96	48	0
STR	61	96	7
SCL	61	96	7	96	48	5
TAP	61	288	3
TAP	61	312	4
TAP	61	336	3
TAP	61	360	4
TAP	62	0	3
TAP	62	24	4
TAP	62	48	3
TAP	62	72	4
TAP	62	96	3
BRK	62	192	1
BRK	62	192	6
TAP	62	288	5
TAP	62	336	5
TAP	63	0	4
TAP	63	0	6
TAP	63	96	1
TAP	63	144	1
TAP	63	192	0
TAP	63	192	2
TAP	63	288	7
TAP	63	336	6
TAP	64	0	5
STR	64	48	4
SI_	64	48	4	96	48	6
STR	64	96	4
SI_	64	96	4	96	48	0
TAP	64	288	2
TAP	64	336	2
TAP	65	0	1
TAP	65	0	3
TAP	65	96	6
TAP	65	144	6
TAP	65	192	5
TAP	65	192	7
TAP	65	240	6
TAP	65	288	7
TAP	65	336	1
TAP	65	360	0
TAP	66	0	1
STR	66	48	3
SI_	66	48	3	96	48	1
STR	66	96	3
SI_	66	96	3	96	48	7
TAP	66	288	5
TAP	66	336	4
TAP	66	336	6
TAP	67	0	3
TAP	67	0	7
TAP	67	96	1
TAP	67	144	0
TAP	67	144	2
TAP	67	192	3
TAP	67	192	7
TAP	67	240	0
TAP	67	288	6
TAP	67	336	6
TAP	68	0	7
STR	68	48	0
SUL	68	48	0	96	48	2
STR	68	96	6
SUR	68	96	6	96	48	4
TAP	68	288	2
TAP	68	336	1
TAP	68	336	3
TAP	69	0	0
TAP	69	0	4
TAP	69	96	6
TAP	69	144	5
TAP	69	144	7
TAP	69	192	0
TAP	69	192	4
TAP	69	240	1
STR	69	288	7
SUR	69	288	7	96	48	5
STR	70	48	0
SUL	70	48	0	96	48	2
STR	70	192	6
SUR	70	192	6	96	48	4
STR	70	336	1
SUL	70	336	1	96	48	3
STR	71	96	5
SUL	71	96	5	96	96	4
BRK	71	288	0
TAP	72	0	1
TAP	72	48	1
TAP	72	144	4
TAP	72	144	5
TAP	72	240	3
TAP	72	240	6
STR	72	336	0
SSL	72	336	0	96	96	4
TAP	73	288	7
TAP	74	0	6
TAP	74	48	6
TAP	74	144	2
TAP	74	144	3
TAP	74	240	1
TAP	74	240	4
STR	74	336	5
SSR	74	336	5	96	96	1
TAP	75	288	0
TAP	76	0	1
TAP	76	48	1
TAP	76	144	4
TAP	76	144	5
TAP	76	240	3
TAP	76	240	6
HLD	76	336	0	96
TAP	77	48	1
TAP	77	96	2
TAP	77	144	3
TAP	77	240	6
TAP	77	264	7
BRK	77	288	5
STR	78	96	1
SCL	78	96	1	96	192	6
STR	78	288	5
SUR	78	288	5	96	192	2
STR	79	96	3
SUL	79	96	3	96	192	4
STR	79	288	7
SUL	79	288	7	96	192	0
STR	80	216	1
SUR	80	216	1	96	192	6
STR	80	336	5
SCL	80	336	5	96	144	2
STR	81	240	0
SCR	81	240	0	96	168	6
BRK	82	168	7

T_REC_TAP	352
T_REC_BRK	25
T_REC_XTP	0
T_REC_HLD	17
T_REC_XHO	0
T_REC_STR	70
T_REC_BST	0
T_REC_XST	0
T_REC_TTP	0
T_REC_THO	0
T_REC_SLD	70
T_REC_ALL	534
T_NUM_TAP	422
T_NUM_BRK	25
T_NUM_HLD	17
T_NUM_SLD	70
T_NUM_ALL	534
T_JUDGE_TAP	447
T_JUDGE_HLD	42
T_JUDGE_SLD	70
T_JUDGE_ALL	559
TTM_EACHPAIRS	57
TTM_SCR_TAP	211000
TTM_SCR_BRK	65000
TTM_SCR_HLD	17000
TTM_SCR_SLD	105000
TTM_SCR_ALL	398000
TTM_SCR_S	383650
TTM_SCR_SS	395500
TTM_RAT_ACV	10063

