VERSION	0.00.00	1.03.00
FES_MODE	0
BPM_DEF	180.000	180.000	180.000	120.000
MET_DEF	4	4
RESOLUTION	384
CLK_DEF	384
COMPATIBLE_CODE	MA2

BPM	0	0	180.000
BPM	55	0	120.000
BPM	58	288	180.000
MET	0	0	4	4
MET	58	0	4	3
MET	58	288	4	4

HLD	2	0	0	96
HLD	2	192	0	96
TAP	3	0	1
TAP	3	96	2
TAP	3	192	3
BRK	3	240	7
BRK	3	288	7
HLD	4	0	7	96
HLD	4	192	7	96
TAP	5	0	7
TAP	5	96	6
TAP	5	192	5
BRK	5	240	0
BRK	5	288	0
HLD	6	0	0	96
HLD	6	192	7	96
TAP	7	0	1
TAP	7	96	6
TAP	7	192	1
BRK	7	240	7
BRK	7	288	0
TAP	8	0	1
TAP	8	0	6
TAP	8	96	2
TAP	8	96	5
TAP	8	192	3
TAP	8	192	4
TAP	9	0	0
TAP	9	0	1
TAP	9	144	6
TAP	9	144	7
TAP	9	288	4
TAP	9	288	5
TAP	10	48	2
TAP	10	48	3
TAP	10	192	2
TAP	10	192	5
TAP	10	288	1
TAP	10	288	6
HLD	11	0	0	384
HLD	11	0	7	384
HLD	13	0	1	144
TAP	13	96	0
TAP	13	144	0
STR	13	240	7
SCR	13	240	7	96	192	2
HLD	15	0	5	144
TAP	15	96	4
TAP	15	144	4
STR	15	240	3
SCR	15	240	3	96	192	6
TAP	17	192	0
TAP	17	192	4
TAP	18	0	1
TAP	18	0	5
TAP	18	192	2
TAP	18	192	6
HLD	19	0	3	288
HLD	19	0	7	288
TAP	20	0	0
TAP	20	48	0
TAP	20	96	0
TAP	20	192	7
TAP	20	240	7
TAP	20	288	7
TAP	21	0	0
TAP	21	48	1
TAP	21	96	2
TAP	21	144	2
TAP	21	192	7
TAP	21	240	6
TAP	21	288	5
TAP	21	336	5
TAP	22	0	0
TAP	22	48	0
TAP	22	96	1
TAP	22	192	7
TAP	22	240	7
TAP	22	288	6
TAP	23	0	1
TAP	23	48	2
TAP	23	96	3
TAP	23	144	3
TAP	23	192	6
TAP	23	240	5
TAP	23	288	4
TAP	23	336	4
TAP	24	0	0
TAP	24	48	1
TAP	24	96	2
TAP	24	192	7
TAP	24	240	6
TAP	24	288	5
TAP	25	0	3
TAP	25	48	4
TAP	25	96	2
TAP	25	144	5
TAP	25	192	1
TAP	25	240	6
TAP	25	288	0
TAP	25	336	7
TAP	26	0	0
TAP	26	96	0
TAP	26	192	4
TAP	26	288	4
TAP	27	0	2
TAP	27	0	3
TAP	27	96	1
TAP	27	96	4
BRK	27	192	6
BRK	27	192	7
TAP	28	0	4
TAP	28	0	7
STR	28	96	5
SI_	28	96	5	96	96	2
STR	28	96	6
SI_	28	96	6	96	96	1
TAP	29	0	0
TAP	29	0	1
TAP	29	96	0
TAP	29	96	7
TAP	29	192	6
TAP	29	192	7
TAP	30	0	0
TAP	30	0	3
STR	30	96	1
SI_	30	96	1	96	96	6
STR	30	96	2
SI_	30	96	2	96	96	5
TAP	31	0	6
TAP	31	0	7
TAP	31	96	0
TAP	31	96	7
TAP	31	192	0
TAP	31	192	1
TAP	32	0	1
TAP	32	0	6
STR	32	96	0
SI_	32	96	0	96	96	4
STR	32	96	7
SI_	32	96	7	96	96	3
TAP	33	0	2
TAP	33	0	5
TAP	33	96	0
TAP	33	144	7
TAP	33	192	0
TAP	33	240	7
STR	33	336	2
SI_	33	336	2	96	48	6
STR	34	144	5
SI_	34	144	5	96	48	1
STR	34	336	3
SI_	34	336	3	96	48	0
STR	35	144	4
SI_	35	144	4	96	48	7
HLD	35	336	1	336
TAP	36	96	6
TAP	36	192	7
TAP	36	288	0
BRK	37	0	7
TAP	38	0	6
TAP	38	48	6
TAP	38	96	6
TAP	38	192	1
TAP	38	240	1
TAP	38	288	1
TAP	38	336	6
TAP	39	0	5
TAP	39	48	4
TAP	39	96	5
TAP	39	144	4
TAP	39	192	5
BRK	39	240	0
BRK	39	288	0
TAP	40	0	1
TAP	40	48	0
TAP	40	96	1
TAP	40	192	6
TAP	40	240	7
TAP	40	288	6
TAP	41	0	2
TAP	41	0	3
TAP	41	96	3
TAP	41	96	4
TAP	41	192	4
TAP	41	192	5
BRK	41	240	3
BRK	41	288	3
TAP	42	0	1
TAP	42	48	1
TAP	42	96	1
TAP	42	192	6
TAP	42	240	6
TAP	42	288	6
TAP	42	336	1
TAP	43	0	2
TAP	43	48	3
TAP	43	96	2
TAP	43	144	3
TAP	43	192	2
BRK	43	240	7
BRK	43	288	7
TAP	44	0	2
TAP	44	48	4
TAP	44	96	2
TAP	44	192	5
TAP	44	240	3
TAP	44	288	5
TAP	44	336	2
TAP	45	0	3
TAP	45	0	4
TAP	45	96	0
TAP	45	96	2
TAP	45	192	5
TAP	45	192	7
BRK	45	240	0
BRK	45	288	0
TAP	46	0	2
TAP	46	48	2
TAP	46	96	1
TAP	46	96	3
TAP	46	192	5
TAP	46	240	5
TAP	46	288	4
TAP	46	288	6
TAP	47	0	4
TAP	47	48	3
TAP	47	96	4
TAP	47	144	5
TAP	47	192	4
TAP	47	192	6
BRK	47	240	7
BRK	47	288	7
TAP	48	0	6
TAP	48	48	6
TAP	48	96	5
TAP	48	96	7
TAP	48	192	1
TAP	48	240	1
TAP	48	288	0
TAP	48	288	2
TAP	49	0	3
TAP	49	48	4
TAP	49	96	3
TAP	49	144	2
TAP	49	192	1
TAP	49	192	3
BRK	49	240	0
BRK	49	288	0
TAP	50	0	1
TAP	50	0	3
TAP	50	48	2
TAP	50	96	3
TAP	50	192	4
TAP	50	192	6
TAP	50	240	5
TAP	50	288	4
TAP	50	336	5
TAP	51	0	4
TAP	51	48	3
TAP	51	96	2
TAP	51	144	3
TAP	51	192	2
BRK	51	240	7
BRK	51	288	7
TAP	52	0	1
TAP	52	48	2
TAP	52	96	3
TAP	52	192	6
TAP	52	240	5
TAP	52	288	4
TAP	52	336	3
HLD	53	0	2	144
HLD	53	144	1	144
HLD	53	288	0	144
HLD	54	48	7	144
TAP	54	192	6
TAP	54	288	5
HLD	55	0	5	192
HLD	55	192	6	144
TAP	55	336	7
HLD	56	0	7	288
TAP	56	96	0
TAP	56	192	1
TAP	56	288	2
HLD	57	0	3	384
TAP	57	192	6
TAP	57	288	5
TAP	58	0	4
TAP	58	288	0
TAP	59	96	0
TAP	59	240	1
TAP	59	288	1
TAP	60	0	0
TAP	60	96	7
TAP	60	192	6
TAP	60	288	5
TAP	61	96	5
TAP	61	192	2
TAP	61	264	4
TAP	61	288	3
TAP	62	96	7
TAP	62	288	2
TAP	62	336	3
TAP	63	0	2
TAP	63	96	5
TAP	63	144	4
TAP	63	192	5
TAP	63	288	2
TAP	63	336	1
TAP	64	0	0
TAP	64	48	0
TAP	64	96	1
BRK	64	144	7
BRK	64	192	7
TAP	64	288	5
TAP	64	336	4
TAP	65	0	5
TAP	65	96	2
TAP	65	144	3
TAP	65	192	2
TAP	65	288	5
TAP	65	336	6
TAP	66	0	7
TAP	66	48	7
TAP	66	96	6
BRK	66	144	0
BRK	66	192	0
TAP	66	288	1
TAP	66	336	0
TAP	67	0	2
TAP	67	96	6
TAP	67	144	7
TAP	67	192	5
TAP	67	288	1
TAP	67	336	6
TAP	68	0	1
TAP	68	48	6
TAP	68	96	1
BRK	68	144	7
BRK	68	192	7
TAP	68	288	1
TAP	68	336	0
TAP	69	0	1
TAP	69	96	6
TAP	69	144	7
TAP	69	192	6
HLD	69	288	1	144
TAP	70	48	2
HLD	70	192	6	144
TAP	70	336	5
HLD	71	96	2	96
STR	71	192	1
SCL	71	192	1	96	336	3
TAP	73	288	1
TAP	73	288	4
TAP	74	0	0
TAP	74	0	5
TAP	74	48	0
TAP	74	48	5
STR	74	144	6
SI_	74	144	6	96	72	3
STR	74	144	7
SI_	74	144	7	96	72	2
TAP	75	288	0
TAP	75	288	3
TAP	76	0	4
TAP	76	0	7
TAP	76	48	4
TAP	76	48	7
STR	76	144	5
SI_	76	144	5	96	96	2
STR	76	144	6
SI_	76	144	6	96	96	1
TAP	78	96	2
TAP	78	96	5
TAP	78	288	1
TAP	78	288	6
TAP	79	96	0
TAP	79	96	7
HLD	79	288	1	336
HLD	79	288	6	336
HLD	80	336	0	288
TAP	81	240	7
BRK	82	168	3
BRK	82	168	4

T_REC_TAP	294
T_REC_BRK	31
T_REC_XTP	0
T_REC_HLD	27
T_REC_XHO	0
T_REC_STR	17
T_REC_BST	0
T_REC_XST	0
T_REC_TTP	0
T_REC_THO	0
T_REC_SLD	17
T_REC_ALL	386
T_NUM_TAP	311
T_NUM_BRK	31
T_NUM_HLD	27
T_NUM_SLD	17
T_NUM_ALL	386
T_JUDGE_TAP	342
T_JUDGE_HLD	114
T_JUDGE_SLD	17
T_JUDGE_ALL	473
TTM_EACHPAIRS	57
TTM_SCR_TAP	155500
TTM_SCR_BRK	80600
TTM_SCR_HLD	27000
TTM_SCR_SLD	25500
TTM_SCR_ALL	288600
TTM_SCR_S	276950
TTM_SCR_SS	285500
TTM_RAT_ACV	10108

