VERSION	0.00.00	1.03.00
FES_MODE	0
BPM_DEF	180.000	180.000	180.000	120.000
MET_DEF	4	4
RESOLUTION	384
CLK_DEF	384
COMPATIBLE_CODE	MA2

BPM	0	0	180.000
BPM	55	0	120.000
BPM	58	288	180.000
MET	0	0	4	4
MET	58	0	4	3
MET	58	288	4	4

TAP	2	0	1
TAP	2	96	1
TAP	2	192	0
TAP	2	288	0
TAP	3	0	7
TAP	3	96	6
TAP	3	192	4
TAP	3	192	5
TAP	4	0	6
TAP	4	96	6
TAP	4	192	7
TAP	4	288	7
TAP	5	0	0
TAP	5	96	7
TAP	5	192	0
TAP	5	192	7
TAP	6	0	2
TAP	6	96	2
TAP	6	192	1
TAP	6	288	1
TAP	7	0	2
TAP	7	96	3
TAP	7	192	4
TAP	7	192	5
TAP	8	0	5
TAP	8	96	5
TAP	8	192	6
TAP	8	288	6
HLD	9	0	5	144
HLD	9	288	3	144
TAP	10	192	1
TAP	10	288	0
HLD	11	0	7	336
TAP	11	336	0
HLD	13	0	1	336
TAP	13	336	2
HLD	15	0	5	336
TAP	15	336	4
TAP	17	0	0
TAP	17	0	7
TAP	17	192	6
TAP	18	0	4
TAP	18	192	2
HLD	19	0	1	288
HLD	19	0	6	288
TAP	20	0	2
TAP	20	192	2
TAP	21	0	5
TAP	21	96	4
TAP	21	192	5
TAP	22	0	6
TAP	22	192	6
TAP	23	0	1
TAP	23	96	2
TAP	23	192	1
TAP	24	0	0
TAP	24	192	0
TAP	25	0	7
TAP	25	96	0
TAP	25	192	7
HLD	26	0	0	288
BRK	26	288	7
TAP	27	0	0
TAP	27	0	7
TAP	27	96	0
TAP	27	96	7
TAP	27	192	0
TAP	27	192	7
HLD	28	0	1	288
TAP	28	288	2
TAP	29	0	2
TAP	29	0	3
TAP	29	96	2
TAP	29	96	3
TAP	29	192	2
TAP	29	192	3
HLD	30	0	5	288
TAP	30	288	6
TAP	31	0	6
TAP	31	0	7
TAP	31	96	6
TAP	31	96	7
TAP	31	192	6
TAP	31	192	7
TAP	32	0	0
TAP	32	96	0
TAP	32	192	0
TAP	32	192	7
STR	32	288	0
SI_	32	288	0	96	240	3
STR	32	288	7
SI_	32	288	7	96	240	4
TAP	33	336	0
TAP	34	144	7
TAP	34	336	0
TAP	35	144	7
HLD	35	336	0	432
TAP	38	0	6
TAP	38	96	6
TAP	38	192	7
TAP	38	288	7
TAP	39	0	0
TAP	39	96	1
TAP	39	192	2
TAP	39	192	3
TAP	40	0	1
TAP	40	96	1
TAP	40	192	0
TAP	40	288	0
TAP	41	0	7
TAP	41	96	0
TAP	41	192	0
TAP	41	192	7
TAP	42	0	5
TAP	42	96	5
TAP	42	192	6
TAP	42	288	6
TAP	43	0	5
TAP	43	96	4
TAP	43	192	2
TAP	43	192	3
TAP	44	0	2
TAP	44	96	2
TAP	44	192	5
TAP	44	288	5
TAP	45	0	3
TAP	45	96	4
TAP	45	192	1
TAP	45	192	6
TAP	46	0	3
TAP	46	96	3
TAP	46	192	4
TAP	46	240	4
TAP	46	288	4
TAP	47	0	1
TAP	47	96	2
TAP	47	192	3
TAP	47	192	4
TAP	48	0	7
TAP	48	96	7
TAP	48	192	0
TAP	48	240	0
TAP	48	288	0
TAP	49	0	5
TAP	49	96	6
TAP	49	192	0
TAP	49	192	7
TAP	50	0	1
TAP	50	96	1
TAP	50	192	6
TAP	50	240	6
TAP	50	288	6
TAP	51	0	0
TAP	51	96	7
TAP	51	192	1
TAP	51	192	6
TAP	52	0	7
TAP	52	96	7
TAP	52	192	1
TAP	52	240	1
TAP	52	288	1
TAP	53	0	2
TAP	53	0	3
TAP	53	144	1
TAP	53	144	4
TAP	53	288	4
TAP	53	288	5
TAP	54	48	3
TAP	54	48	6
TAP	54	192	0
TAP	54	288	1
HLD	55	0	2	192
HLD	55	192	3	192
TAP	56	0	4
TAP	56	96	4
TAP	56	192	4
TAP	56	192	5
TAP	56	288	4
TAP	56	288	5
HLD	57	0	5	192
HLD	57	192	6	192
BRK	58	0	7
TAP	58	288	0
TAP	58	288	7
TAP	59	96	0
TAP	59	96	7
TAP	59	288	1
TAP	59	288	6
TAP	60	96	1
TAP	60	96	6
HLD	60	288	5	192
HLD	61	96	4	192
TAP	61	288	3
BRK	62	96	2
BRK	62	96	5
TAP	62	288	4
TAP	62	336	4
TAP	63	0	4
TAP	63	96	1
TAP	63	144	1
TAP	63	192	1
TAP	63	288	2
TAP	63	288	3
TAP	64	0	3
TAP	64	0	4
TAP	64	96	4
TAP	64	96	5
TAP	64	288	3
TAP	64	336	3
TAP	65	0	3
TAP	65	96	6
TAP	65	144	6
TAP	65	192	6
TAP	65	288	4
TAP	65	288	5
TAP	66	0	3
TAP	66	0	4
TAP	66	96	2
TAP	66	96	3
TAP	66	288	2
TAP	66	336	3
TAP	67	0	2
TAP	67	96	5
TAP	67	144	4
TAP	67	192	5
TAP	67	288	0
TAP	67	288	1
TAP	68	0	0
TAP	68	0	7
TAP	68	96	6
TAP	68	96	7
TAP	68	288	1
TAP	68	336	0
TAP	69	0	1
TAP	69	96	6
TAP	69	144	7
TAP	69	192	6
TAP	69	288	2
TAP	69	288	3
TAP	70	48	1
TAP	70	48	4
TAP	70	192	4
TAP	70	192	5
TAP	70	336	3
TAP	70	336	6
TAP	71	96	0
TAP	71	192	7
HLD	71	288	7	336
STR	72	240	0
SI_	72	240	0	96	144	3
HLD	73	288	1	336
STR	74	240	2
SI_	74	240	2	96	144	5
HLD	75	288	5	336
STR	76	240	4
SI_	76	240	4	96	144	0
BRK	77	288	0
BRK	77	288	7
HLD	78	96	1	192
HLD	78	288	3	192
HLD	79	96	5	192
HLD	79	288	7	312
TAP	80	336	7
TAP	81	240	0
BRK	82	168	0
BRK	82	168	7

T_REC_TAP	224
T_REC_BRK	8
T_REC_XTP	0
T_REC_HLD	24
T_REC_XHO	0
T_REC_STR	5
T_REC_BST	0
T_REC_XST	0
T_REC_TTP	0
T_REC_THO	0
T_REC_SLD	5
T_REC_ALL	266
T_NUM_TAP	229
T_NUM_BRK	8
T_NUM_HLD	24
T_NUM_SLD	5
T_NUM_ALL	266
T_JUDGE_TAP	237
T_JUDGE_HLD	130
T_JUDGE_SLD	5
T_JUDGE_ALL	372
TTM_EACHPAIRS	49
TTM_SCR_TAP	114500
TTM_SCR_BRK	20800
TTM_SCR_HLD	24000
TTM_SCR_SLD	7500
TTM_SCR_ALL	166800
TTM_SCR_S	161050
TTM_SCR_SS	166000
TTM_RAT_ACV	10048

