VERSION	0.00.00	1.03.00
FES_MODE	0
BPM_DEF	180.000	180.000	180.000	120.000
MET_DEF	4	4
RESOLUTION	384
CLK_DEF	384
COMPATIBLE_CODE	MA2

BPM	0	0	180.000
BPM	55	0	120.000
BPM	58	288	180.000
MET	0	0	4	4
MET	58	0	4	3
MET	58	288	4	4

TAP	2	0	1
TAP	2	192	1
HLD	3	0	1	192
TAP	4	0	0
TAP	4	192	0
HLD	5	0	0	192
TAP	6	0	7
TAP	6	192	7
HLD	7	0	7	192
TAP	8	0	0
TAP	8	192	0
STR	9	0	0
SI_	9	0	0	96	288	4
HLD	11	0	7	144
TAP	11	336	7
HLD	13	0	0	144
TAP	13	336	0
HLD	15	0	7	144
TAP	15	336	7
TAP	17	0	0
TAP	17	192	0
TAP	18	0	7
TAP	18	192	7
BRK	19	0	0
BRK	19	0	7
TAP	20	0	0
TAP	20	192	0
HLD	21	0	0	192
TAP	22	0	1
TAP	22	192	1
HLD	23	0	1	192
TAP	24	0	2
TAP	24	192	2
HLD	25	0	2	192
HLD	26	0	3	192
TAP	27	0	3
TAP	27	192	3
HLD	28	0	4	192
TAP	29	0	4
TAP	29	192	4
HLD	30	0	5	192
TAP	31	0	5
TAP	31	192	5
HLD	32	0	6	192
TAP	33	336	0
TAP	34	144	7
TAP	34	336	0
TAP	35	144	7
HLD	35	336	0	432
HLD	35	336	7	432
TAP	38	0	7
TAP	38	192	7
TAP	39	0	7
TAP	39	96	7
TAP	39	192	7
TAP	40	0	6
TAP	40	192	6
TAP	41	0	6
TAP	41	96	6
TAP	41	192	6
TAP	42	0	5
TAP	42	192	5
TAP	43	0	5
TAP	43	96	5
TAP	43	192	5
TAP	44	0	4
TAP	44	192	4
TAP	45	0	4
TAP	45	96	4
TAP	45	192	4
TAP	46	0	3
TAP	46	192	3
TAP	47	0	3
TAP	47	96	3
TAP	47	192	3
TAP	48	0	2
TAP	48	192	2
TAP	49	0	2
TAP	49	96	2
TAP	49	192	2
TAP	50	0	1
TAP	50	192	1
TAP	51	0	1
TAP	51	96	1
TAP	51	192	1
TAP	52	0	0
TAP	52	192	0
STR	53	0	0
SI_	53	0	0	96	288	4
HLD	55	0	0	192
HLD	56	0	1	192
HLD	57	0	2	192
TAP	58	0	3
TAP	58	0	4
TAP	58	288	5
TAP	59	288	6
TAP	60	288	7
TAP	61	288	0
BRK	62	96	0
BRK	62	96	7
TAP	62	288	6
TAP	63	96	6
TAP	63	288	5
TAP	64	0	5
TAP	64	96	5
TAP	64	288	4
TAP	65	96	4
TAP	65	288	3
TAP	66	0	3
TAP	66	96	3
TAP	66	288	2
TAP	67	96	2
TAP	67	288	1
TAP	68	0	1
TAP	68	96	1
TAP	68	288	0
TAP	69	96	0
STR	69	288	7
SI_	69	288	7	96	288	3
HLD	71	288	0	144
TAP	72	240	0
HLD	73	288	7	144
TAP	74	240	7
HLD	75	288	0	144
TAP	76	240	0
TAP	77	288	0
TAP	77	288	7
TAP	78	96	0
TAP	78	288	7
TAP	79	96	0
HLD	79	288	7	1008
HLD	80	336	0	576

T_REC_TAP	99
T_REC_BRK	4
T_REC_XTP	0
T_REC_HLD	23
T_REC_XHO	0
T_REC_STR	3
T_REC_BST	0
T_REC_XST	0
T_REC_TTP	0
T_REC_THO	0
T_REC_SLD	3
T_REC_ALL	132
T_NUM_TAP	102
T_NUM_BRK	4
T_NUM_HLD	23
T_NUM_SLD	3
T_NUM_ALL	132
T_JUDGE_TAP	106
T_JUDGE_HLD	121
T_JUDGE_SLD	3
T_JUDGE_ALL	230
TTM_EACHPAIRS	5
TTM_SCR_TAP	51000
TTM_SCR_BRK	10400
TTM_SCR_HLD	23000
TTM_SCR_SLD	4500
TTM_SCR_ALL	88900
TTM_SCR_S	85850
TTM_SCR_SS	88500
TTM_RAT_ACV	10045

