VERSION	0.00.00	1.03.00
FES_MODE	0
BPM_DEF	135.000	135.000	135.000	135.000
MET_DEF	4	4
RESOLUTION	384
CLK_DEF	384
COMPATIBLE_CODE	MA2

BPM	0	0	135.000
MET	0	0	4	4

TAP	1	96	0
TAP	1	144	7
TAP	1	240	3
TAP	1	288	2
TAP	1	336	1
TAP	2	48	4
TAP	2	96	5
TAP	2	144	6
TAP	2	240	2
TAP	2	240	5
TAP	2	288	1
TAP	2	288	6
TAP	2	336	0
TAP	2	336	7
TAP	3	0	2
TAP	3	0	5
TAP	3	96	6
TAP	3	144	5
TAP	3	192	4
TAP	3	240	1
TAP	3	288	2
TAP	3	336	3
TAP	4	0	5
TAP	4	24	4
TAP	4	96	2
TAP	4	120	3
TAP	4	192	0
TAP	4	240	7
TAP	4	288	0
TAP	4	312	7
TAP	4	336	0
TAP	5	0	5
TAP	5	48	2
TAP	5	72	3
TAP	5	144	1
TAP	5	144	4
TAP	5	192	2
TAP	5	240	5
TAP	5	264	4
TAP	5	336	3
TAP	5	336	6
TAP	6	0	5
TAP	6	48	3
TAP	6	72	4
TAP	6	144	2
TAP	6	144	5
STR	6	192	0
SI_	6	192	0	96	24	3
STR	6	192	7
SI_	6	192	7	96	24	4
TAP	7	0	3
TAP	7	96	4
TAP	7	192	2
TAP	7	192	5
TAP	7	240	1
TAP	7	240	6
TAP	7	336	0
TAP	8	48	7
TAP	8	96	1
TAP	8	144	6
TAP	8	192	2
TAP	8	240	5
TAP	8	288	3
TAP	8	312	4
TAP	8	336	3
TAP	8	360	4
TAP	9	0	1
TAP	9	48	6
TAP	9	72	6
TAP	9	144	0
TAP	9	144	5
TAP	9	192	6
TAP	9	240	1
TAP	9	264	1
TAP	9	336	2
TAP	9	336	7
TAP	10	0	1
TAP	10	0	6
TAP	10	48	0
TAP	10	72	7
TAP	10	144	1
TAP	10	144	6
STR	10	192	3
SI_	10	192	3	96	24	0
STR	10	192	4
SI_	10	192	4	96	24	7
TAP	11	0	1
TAP	11	96	6
TAP	11	192	2
TAP	11	240	5
TAP	11	336	3
TAP	12	48	4
TAP	12	96	4
TAP	12	144	3
TAP	12	192	4
TAP	12	240	3
TAP	12	288	5
TAP	12	312	2
TAP	12	336	5
TAP	12	360	2
HLD	13	0	5	96
TAP	13	96	1
TAP	13	192	6
TAP	13	216	0
TAP	13	264	4
TAP	13	312	4
HLD	14	0	2	95
TAP	14	96	6
TAP	14	192	1
TAP	14	216	7
TAP	14	264	3
TAP	14	312	3
HLD	15	0	6	96
TAP	15	96	1
TAP	15	192	0
TAP	15	192	7
TAP	15	216	0
TAP	15	216	7
TAP	15	264	1
TAP	15	264	6
TAP	15	312	2
TAP	15	312	5
TAP	15	360	3
TAP	15	360	4
TAP	16	0	3
TAP	16	0	4
HLD	16	144	1	144
HLD	16	144	6	144
HLD	17	0	4	96
HLD	17	96	2	96
HLD	17	192	6	96
TAP	17	240	3
TAP	17	288	7
HLD	17	336	1	96
TAP	18	48	4
TAP	18	144	7
TAP	18	240	1
TAP	18	288	4
TAP	18	336	5
HLD	19	0	3	96
HLD	19	96	5	96
HLD	19	192	1	96
TAP	19	240	4
TAP	19	288	0
HLD	19	336	6	96
TAP	20	48	3
TAP	20	96	2
TAP	20	144	1
TAP	20	192	0
TAP	20	240	5
TAP	20	288	1
TAP	20	312	6
TAP	20	336	1
TAP	20	360	6
HLD	21	0	0	96
HLD	21	96	6	96
HLD	21	192	2	96
TAP	21	240	7
TAP	21	288	3
HLD	21	336	5	96
TAP	22	48	0
TAP	22	144	3
TAP	22	144	4
HLD	22	240	2	96
HLD	22	240	5	96
STR	23	0	3
SI_	23	0	3	96	48	0
STR	23	0	4
SI_	23	0	4	96	48	7
TAP	23	240	1
TAP	23	240	6
TAP	23	336	0
STR	24	48	7
SCL	24	48	7	96	48	5
TAP	24	144	1
STR	24	192	0
SCR	24	192	0	96	48	2
TAP	24	288	6
STR	24	336	7
SV_	24	336	7	96	72	4
TAP	25	48	2
TAP	25	96	1
STR	25	144	0
SV_	25	144	0	96	72	3
TAP	25	240	5
TAP	25	288	6
STR	25	336	7
SI_	25	336	7	96	48	4
TAP	26	48	1
STR	26	96	0
SI_	26	96	0	96	24	3
BRK	26	192	7
TAP	27	0	2
TAP	27	48	5
HLD	27	96	3	144
HLD	27	144	4	96
TAP	27	336	0
TAP	27	336	7
TAP	28	48	5
TAP	28	96	2
HLD	28	144	6	144
TAP	28	240	2
HLD	28	288	1	192
TAP	29	0	3
TAP	29	96	5
HLD	29	192	7	240
TAP	29	240	2
TAP	29	288	1
HLD	29	336	0	96
TAP	30	96	0
TAP	30	96	7
TAP	30	144	2
TAP	30	144	5
TAP	30	240	0
TAP	30	240	7
TAP	30	288	1
TAP	30	288	6
TAP	30	336	0
TAP	30	336	7
HLD	31	0	1	192
HLD	31	0	6	192
TAP	31	240	2
TAP	31	240	4
TAP	31	288	0
TAP	31	288	5
HLD	31	336	2	240
HLD	31	336	3	240
TAP	32	240	3
TAP	32	240	5
TAP	32	288	2
TAP	32	288	7
HLD	32	336	4	144
HLD	32	336	5	144
TAP	33	144	5
TAP	33	168	4
TAP	33	192	5
TAP	33	240	2
TAP	33	264	3
TAP	33	288	2
TAP	33	336	2
TAP	33	336	5
TAP	34	48	7
TAP	34	96	6
TAP	34	144	5
TAP	34	240	0
TAP	34	288	1
TAP	34	336	2
TAP	35	0	3
TAP	35	0	7
TAP	35	48	2
TAP	35	96	1
TAP	35	96	5
TAP	35	144	0
TAP	35	192	1
TAP	35	192	5
TAP	35	240	2
TAP	35	240	6
TAP	35	288	3
TAP	35	288	7
TAP	36	0	2
TAP	36	48	6
HLD	36	72	1	72
TAP	36	144	6
TAP	36	192	5
TAP	36	240	1
HLD	36	264	6	72
TAP	36	336	1
TAP	37	0	2
TAP	37	48	7
HLD	37	72	2	72
TAP	37	144	7
STR	37	192	1
SI_	37	192	1	96	24	5
TAP	37	288	7
HLD	38	0	2	96
TAP	38	96	6
TAP	38	192	5
TAP	38	192	7
TAP	38	240	0
TAP	38	240	6
TAP	38	336	0
TAP	38	336	7
TAP	39	0	1
TAP	39	0	7
TAP	39	48	2
TAP	39	48	7
TAP	39	96	3
TAP	39	96	7
TAP	39	144	4
TAP	39	144	7
TAP	39	192	2
TAP	39	192	6
TAP	39	240	1
TAP	39	240	6
TAP	39	288	7
TAP	39	312	0
TAP	39	336	7
TAP	39	360	0
TAP	40	0	6
TAP	40	48	2
HLD	40	72	5	72
TAP	40	144	2
TAP	40	192	0
TAP	40	240	5
HLD	40	264	2	72
TAP	40	336	5
TAP	41	0	5
TAP	41	48	0
HLD	41	72	5	72
TAP	41	144	0
STR	41	192	6
SI_	41	192	6	96	24	2
TAP	41	288	0
STR	42	0	1
SUL	42	0	1	96	96	4
TAP	42	192	6
TAP	42	240	7
TAP	42	288	0
HLD	42	336	1	288
TAP	43	48	0
TAP	43	96	7
HLD	43	144	6	96
TAP	43	288	3
TAP	43	312	4
TAP	43	336	2
TAP	43	360	5
STR	44	0	2
SI_	44	0	2	96	24	7
TAP	44	96	4
TAP	44	192	2
TAP	44	216	3
TAP	44	264	0
TAP	44	312	1
STR	45	0	5
SI_	45	0	5	96	24	0
TAP	45	96	3
TAP	45	192	5
TAP	45	216	4
TAP	45	264	7
TAP	45	312	6
STR	46	0	3
SI_	46	0	3	96	24	0
TAP	46	96	4
TAP	46	192	7
TAP	46	216	0
TAP	46	264	6
TAP	46	312	1
TAP	46	360	5
BRK	47	0	2
TAP	47	144	3
TAP	47	144	4
TAP	47	240	3
TAP	47	288	2
TAP	47	336	1
TAP	48	0	0
TAP	48	0	4
TAP	48	48	1
TAP	48	48	5
TAP	48	96	2
TAP	48	96	6
HLD	48	144	3	96
HLD	48	144	7	96
TAP	48	288	3
TAP	48	288	7
HLD	48	336	2	48
HLD	48	336	6	48
HLD	49	48	1	48
HLD	49	48	5	48
HLD	49	144	0	48
HLD	49	144	4	48
TAP	49	240	1
TAP	49	240	5
TAP	49	288	2
TAP	49	288	6
TAP	50	0	1
HLD	50	0	5	96
TAP	50	96	2
HLD	50	192	2	96
TAP	50	192	6
TAP	50	288	5
TAP	51	0	1
TAP	51	48	6
TAP	51	96	0
TAP	51	144	7
TAP	51	192	2
TAP	51	240	5
TAP	51	288	3
TAP	51	312	4
TAP	51	336	2
TAP	51	360	5
STR	52	0	3
SI_	52	0	3	96	48	0
STR	52	192	4
SCR	52	192	4	96	48	7
STR	52	240	3
SCL	52	240	3	96	48	0
TAP	53	144	1
TAP	53	144	6
TAP	53	240	2
TAP	53	240	5
STR	53	336	2
SV_	53	336	2	96	192	4
STR	53	336	6
SV_	53	336	6	96	192	0
STR	54	336	0
SI_	54	336	0	96	48	3
STR	54	336	4
SI_	54	336	4	96	48	7
STR	55	144	3
SCL	55	144	3	96	48	0
STR	55	144	7
SCL	55	144	7	96	48	4
TAP	56	0	5
TAP	56	24	4
TAP	56	48	5
TAP	56	96	1
TAP	56	120	0
TAP	56	144	1
TAP	56	192	5
TAP	56	216	0
TAP	56	240	5
TAP	56	288	6
TAP	56	288	7
TAP	56	336	0
TAP	56	336	5
TAP	57	0	1
TAP	57	0	4
TAP	57	48	2
TAP	57	72	3
TAP	57	120	1
TAP	57	120	4
TAP	57	144	1
TAP	57	144	4
TAP	57	192	2
TAP	57	240	5
TAP	57	264	4
TAP	57	312	3
TAP	57	312	6
TAP	57	336	3
TAP	57	336	6
TAP	58	0	5
TAP	58	48	3
TAP	58	72	4
TAP	58	120	2
TAP	58	120	5
TAP	58	144	2
TAP	58	144	5
STR	58	192	0
SCR	58	192	0	96	24	3
STR	58	192	7
SCL	58	192	7	96	24	4
TAP	58	288	0
TAP	58	288	7
TAP	59	0	3
TAP	59	96	4
TAP	59	192	2
TAP	59	192	5
TAP	59	240	1
TAP	59	240	6
BRK	59	336	2
BRK	59	336	3
BRK	60	0	0
BRK	60	0	5
BRK	60	48	2
BRK	60	48	7
BRK	60	96	4
BRK	60	96	5
BRK	60	144	3
BRK	60	144	5
BRK	60	192	1
BRK	60	192	6
BRK	60	240	0
BRK	60	240	4
TAP	60	288	1
TAP	60	312	5
TAP	60	336	2
TAP	60	360	6
TAP	61	0	3
TAP	61	48	3
TAP	61	48	4
TAP	61	72	3
TAP	61	72	4
TAP	61	120	2
TAP	61	120	5
TAP	61	144	2
TAP	61	144	5
TAP	61	192	1
TAP	61	192	6
TAP	61	240	2
TAP	61	240	5
TAP	61	264	2
TAP	61	264	5
TAP	61	312	1
TAP	61	312	6
TAP	61	336	1
TAP	61	336	6
TAP	62	0	0
TAP	62	24	7
TAP	62	48	1
TAP	62	72	6
TAP	62	96	2
TAP	62	120	5
BRK	62	144	3
STR	62	192	3
SI_	62	192	3	96	24	0
STR	62	192	4
SI_	62	192	4	96	24	7
BRK	62	288	3
BRK	62	288	4
TAP	63	96	0
TAP	63	96	5
TAP	63	192	3
TAP	63	240	4
TAP	63	288	5
HLD	63	336	6	96
TAP	64	48	1
STR	64	96	7
SUR	64	96	7	96	48	3
STR	64	144	3
SCR	64	144	3	96	48	5

T_REC_TAP	384
T_REC_BRK	19
T_REC_XTP	0
T_REC_HLD	51
T_REC_XHO	0
T_REC_STR	33
T_REC_BST	0
T_REC_XST	0
T_REC_TTP	0
T_REC_THO	0
T_REC_SLD	33
T_REC_ALL	520
T_NUM_TAP	417
T_NUM_BRK	19
T_NUM_HLD	51
T_NUM_SLD	33
T_NUM_ALL	520
T_JUDGE_TAP	436
T_JUDGE_HLD	121
T_JUDGE_SLD	33
T_JUDGE_ALL	590
TTM_EACHPAIRS	104
TTM_SCR_TAP	208500
TTM_SCR_BRK	49400
TTM_SCR_HLD	51000
TTM_SCR_SLD	49500
TTM_SCR_ALL	358400
TTM_SCR_S	345850
TTM_SCR_SS	356500
TTM_RAT_ACV	10053

