VERSION	0.00.00	1.03.00
FES_MODE	0
BPM_DEF	135.000	135.000	135.000	135.000
MET_DEF	4	4
RESOLUTION	384
CLK_DEF	384
COMPATIBLE_CODE	MA2

BPM	0	0	135.000
MET	0	0	4	4

HLD	1	0	0	384
HLD	2	0	7	384
STR	3	0	1
SUR	3	0	1	96	240	4
STR	4	0	6
SUL	4	0	6	96	240	3
TAP	5	0	2
TAP	5	0	3
TAP	5	72	2
TAP	5	72	3
TAP	5	192	4
TAP	5	192	5
TAP	5	264	4
TAP	5	264	5
TAP	6	0	0
TAP	6	0	7
TAP	6	72	1
TAP	6	72	6
TAP	6	120	1
TAP	6	120	6
STR	6	192	1
SI_	6	192	1	96	48	4
STR	6	192	6
SI_	6	192	6	96	48	3
HLD	7	96	2	144
TAP	7	192	3
TAP	7	240	4
HLD	7	336	5	192
TAP	8	48	6
TAP	8	96	7
HLD	8	144	0	144
TAP	8	288	7
TAP	9	0	4
TAP	9	0	5
TAP	9	72	3
TAP	9	72	6
TAP	9	192	2
TAP	9	192	3
TAP	9	264	1
TAP	9	264	4
TAP	10	0	1
TAP	10	0	6
TAP	10	72	0
TAP	10	72	7
TAP	10	144	0
TAP	10	144	7
STR	10	192	0
SCR	10	192	0	96	48	3
STR	10	192	7
SCL	10	192	7	96	48	4
HLD	11	96	5	144
TAP	11	192	4
TAP	11	240	3
HLD	11	336	2	192
TAP	12	48	1
TAP	12	96	0
HLD	12	144	7	144
BRK	12	288	0
HLD	13	0	0	96
HLD	13	96	4	96
HLD	13	192	2	72
TAP	13	264	3
TAP	13	312	3
HLD	14	0	7	96
HLD	14	96	3	96
HLD	14	192	5	72
TAP	14	264	4
TAP	14	312	4
HLD	15	0	2	96
HLD	15	96	5	96
HLD	15	192	0	72
TAP	15	264	7
TAP	15	312	7
TAP	16	0	1
TAP	16	0	6
BRK	16	144	0
BRK	16	144	7
TAP	17	0	1
TAP	17	0	4
TAP	17	96	2
TAP	17	96	3
TAP	17	192	5
TAP	17	240	4
TAP	17	288	5
TAP	18	0	3
TAP	18	0	6
TAP	18	96	4
TAP	18	96	5
TAP	18	192	2
TAP	18	240	3
TAP	18	288	2
TAP	19	0	1
TAP	19	0	5
TAP	19	96	2
TAP	19	96	6
TAP	19	192	3
TAP	19	240	4
TAP	19	288	3
TAP	20	0	2
TAP	20	0	6
TAP	20	96	1
TAP	20	96	5
TAP	20	192	0
TAP	20	216	7
TAP	20	288	0
TAP	20	288	7
TAP	21	0	0
TAP	21	0	1
TAP	21	96	2
TAP	21	96	7
TAP	21	192	4
TAP	21	240	5
TAP	21	288	4
TAP	22	0	6
TAP	22	0	7
TAP	22	96	0
TAP	22	96	5
TAP	22	192	3
TAP	22	240	2
TAP	22	288	3
TAP	23	0	0
TAP	23	0	4
TAP	23	96	3
TAP	23	96	7
TAP	23	192	1
TAP	23	240	6
TAP	23	288	1
TAP	24	0	3
TAP	24	0	7
TAP	24	96	0
TAP	24	96	4
TAP	24	192	7
TAP	24	216	0
TAP	24	288	0
TAP	24	288	7
STR	25	0	1
SCL	25	0	1	96	144	6
STR	26	0	5
SUR	26	0	5	96	192	2
HLD	27	0	1	96
HLD	27	96	2	96
HLD	27	192	3	96
TAP	27	288	7
HLD	28	0	6	96
HLD	28	96	5	96
HLD	28	192	4	96
TAP	28	288	0
TAP	29	0	4
TAP	29	96	0
TAP	29	96	6
TAP	29	192	3
TAP	29	288	1
TAP	29	288	7
TAP	30	0	4
TAP	30	96	2
TAP	30	96	7
TAP	30	192	3
TAP	30	288	0
TAP	30	288	5
HLD	31	0	2	96
HLD	31	96	3	96
HLD	31	192	4	96
BRK	31	288	7
HLD	32	0	5	96
HLD	32	96	4	96
HLD	32	192	3	96
BRK	32	288	0
STR	33	0	1
SI_	33	0	1	96	144	4
STR	33	0	2
SI_	33	0	2	96	144	5
BRK	33	336	0
BRK	33	336	7
BRK	34	144	0
BRK	34	144	7
STR	35	0	5
SCR	35	0	5	96	240	2
TAP	36	0	2
TAP	36	0	3
TAP	36	72	4
TAP	36	72	5
TAP	36	192	4
TAP	36	192	5
TAP	36	264	2
TAP	36	264	3
TAP	37	0	0
TAP	37	0	1
TAP	37	72	2
TAP	37	72	7
TAP	37	120	2
TAP	37	120	7
STR	37	192	0
SI_	37	192	0	96	48	5
STR	37	192	1
SI_	37	192	1	96	48	4
HLD	38	96	6	144
TAP	38	192	7
TAP	38	240	7
HLD	38	336	5	192
STR	39	48	4
SI_	39	48	4	96	144	0
TAP	39	96	4
TAP	39	144	4
TAP	40	0	4
TAP	40	0	5
TAP	40	72	2
TAP	40	72	3
TAP	40	192	2
TAP	40	192	3
TAP	40	264	4
TAP	40	264	5
TAP	41	0	6
TAP	41	0	7
TAP	41	72	0
TAP	41	72	5
TAP	41	144	0
TAP	41	144	5
STR	41	192	6
SI_	41	192	6	96	48	3
STR	41	192	7
SI_	41	192	7	96	48	2
HLD	42	96	1	144
TAP	42	192	0
TAP	42	240	0
HLD	42	336	2	192
STR	43	48	3
SI_	43	48	3	96	144	7
TAP	43	96	3
TAP	43	144	3
HLD	44	0	0	96
HLD	44	96	2	96
HLD	44	192	4	72
TAP	44	264	6
TAP	44	312	6
HLD	45	0	7	96
HLD	45	96	3	96
STR	45	192	1
SI_	45	192	1	96	48	5
HLD	46	0	4	96
HLD	46	96	1	96
HLD	46	192	6	72
TAP	46	264	3
TAP	46	312	3
TAP	47	0	1
TAP	47	0	6
BRK	47	144	0
BRK	47	144	7
HLD	48	0	1	96
HLD	48	96	0	96
HLD	48	192	7	96
TAP	48	288	6
HLD	49	0	6	96
HLD	49	96	7	96
HLD	49	192	0	96
TAP	49	288	1
TAP	50	0	0
TAP	50	0	1
TAP	50	96	4
TAP	50	96	5
TAP	50	192	6
TAP	50	192	7
TAP	50	288	2
TAP	50	288	3
TAP	51	0	3
TAP	51	0	7
TAP	51	96	2
TAP	51	96	6
TAP	51	192	1
TAP	51	192	5
TAP	51	288	0
TAP	51	288	4
HLD	52	0	2	240
TAP	52	240	3
TAP	52	288	4
HLD	52	336	5	192
HLD	53	144	7	96
HLD	53	240	1	96
HLD	53	336	3	240
HLD	54	336	6	336
HLD	55	144	1	144
STR	56	0	1
SUR	56	0	1	96	240	3
TAP	57	0	1
TAP	57	0	4
TAP	57	48	2
TAP	57	72	3
TAP	57	192	3
TAP	57	192	6
TAP	57	240	5
TAP	57	264	4
TAP	58	0	1
TAP	58	0	6
TAP	58	48	0
TAP	58	72	7
TAP	58	120	1
TAP	58	120	6
STR	58	192	0
SI_	58	192	0	96	48	3
STR	58	192	7
SI_	58	192	7	96	48	4
TAP	59	96	0
TAP	59	96	7
TAP	59	192	1
TAP	59	192	6
TAP	59	240	3
TAP	59	240	4
HLD	59	336	2	96
HLD	60	48	6	96
HLD	60	144	1	144
TAP	60	288	7
TAP	60	312	0
TAP	60	336	7
TAP	60	360	0
TAP	61	0	6
TAP	61	48	7
TAP	61	72	5
TAP	61	192	1
TAP	61	240	0
TAP	61	264	2
TAP	62	0	2
TAP	62	0	5
TAP	62	48	3
TAP	62	72	4
TAP	62	144	2
TAP	62	144	5
STR	62	192	3
SI_	62	192	3	96	48	0
STR	62	192	4
SI_	62	192	4	96	48	7
TAP	63	96	3
TAP	63	96	7
TAP	63	192	1
TAP	63	240	5
TAP	63	336	0
TAP	63	336	4
STR	64	48	2
SUL	64	48	2	96	240	5
STR	64	48	6
SCR	64	48	6	96	192	1
TAP	64	96	2
TAP	64	96	6

T_REC_TAP	223
T_REC_BRK	11
T_REC_XTP	0
T_REC_HLD	57
T_REC_XHO	0
T_REC_STR	25
T_REC_BST	0
T_REC_XST	0
T_REC_TTP	0
T_REC_THO	0
T_REC_SLD	25
T_REC_ALL	341
T_NUM_TAP	248
T_NUM_BRK	11
T_NUM_HLD	57
T_NUM_SLD	25
T_NUM_ALL	341
T_JUDGE_TAP	259
T_JUDGE_HLD	155
T_JUDGE_SLD	25
T_JUDGE_ALL	439
TTM_EACHPAIRS	84
TTM_SCR_TAP	124000
TTM_SCR_BRK	28600
TTM_SCR_HLD	57000
TTM_SCR_SLD	37500
TTM_SCR_ALL	247100
TTM_SCR_S	238650
TTM_SCR_SS	246000
TTM_RAT_ACV	10044

