VERSION	0.00.00	1.03.00
FES_MODE	0
BPM_DEF	135.000	135.000	135.000	135.000
MET_DEF	4	4
RESOLUTION	384
CLK_DEF	384
COMPATIBLE_CODE	MA2

BPM	0	0	135.000
MET	0	0	4	4

TAP	1	96	4
TAP	1	288	3
TAP	2	96	5
TAP	2	288	2
TAP	3	96	4
STR	3	288	3
SI_	3	288	3	96	144	7
TAP	5	0	0
TAP	5	96	1
TAP	5	192	2
TAP	5	288	2
TAP	5	288	3
TAP	6	0	7
TAP	6	96	6
TAP	6	192	5
TAP	6	288	4
TAP	6	288	5
TAP	7	0	2
TAP	7	96	2
TAP	7	192	5
TAP	7	288	5
TAP	8	0	2
TAP	8	96	2
TAP	8	192	5
TAP	8	288	3
TAP	8	288	4
TAP	9	0	7
TAP	9	96	6
TAP	9	192	5
TAP	9	288	4
TAP	9	288	5
TAP	10	0	0
TAP	10	96	1
TAP	10	192	2
TAP	10	288	2
TAP	10	288	3
TAP	11	0	5
TAP	11	96	5
TAP	11	192	2
TAP	11	288	2
STR	12	0	5
SI_	12	0	5	96	144	1
TAP	13	0	2
TAP	13	0	3
TAP	13	96	2
TAP	13	96	3
TAP	13	192	0
TAP	13	288	0
TAP	14	0	4
TAP	14	0	5
TAP	14	96	4
TAP	14	96	5
TAP	14	192	7
TAP	14	288	7
TAP	15	0	2
TAP	15	0	3
TAP	15	96	2
TAP	15	96	3
TAP	15	192	0
TAP	15	288	0
BRK	16	0	7
HLD	17	96	2	576
TAP	17	288	3
TAP	18	96	3
TAP	18	288	3
HLD	19	96	5	576
TAP	19	288	4
TAP	20	96	4
TAP	20	288	4
HLD	21	96	2	576
TAP	21	288	3
TAP	22	96	1
TAP	22	288	3
HLD	23	96	5	576
TAP	23	288	4
TAP	24	96	6
TAP	24	288	4
TAP	25	96	2
TAP	25	96	3
TAP	25	288	4
TAP	25	288	5
TAP	26	96	1
TAP	26	96	6
BRK	26	192	1
BRK	26	192	6
TAP	27	0	5
TAP	27	96	3
TAP	27	192	2
TAP	27	288	1
TAP	27	288	3
TAP	28	0	2
TAP	28	96	4
TAP	28	192	5
TAP	28	288	4
TAP	28	288	6
TAP	29	0	5
TAP	29	96	3
TAP	29	192	2
TAP	29	288	1
TAP	29	288	3
TAP	30	0	2
TAP	30	96	4
TAP	30	192	5
TAP	30	288	4
TAP	30	288	6
HLD	31	0	6	192
HLD	31	0	7	192
TAP	31	288	6
TAP	31	288	7
HLD	32	0	0	192
HLD	32	0	7	192
TAP	32	288	0
TAP	32	288	7
HLD	33	0	0	192
HLD	33	0	1	192
STR	33	288	0
SI_	33	288	0	96	144	5
STR	33	288	1
SI_	33	288	1	96	144	4
TAP	35	96	3
TAP	35	96	5
TAP	35	288	2
TAP	35	288	4
TAP	36	0	1
TAP	36	96	2
TAP	36	192	4
TAP	36	288	3
TAP	36	288	5
TAP	37	0	6
TAP	37	96	5
TAP	37	192	3
TAP	37	288	2
TAP	37	288	4
TAP	38	0	1
TAP	38	96	2
TAP	38	192	4
TAP	38	288	3
TAP	38	288	5
TAP	39	0	6
TAP	39	96	6
TAP	39	96	7
TAP	39	192	0
TAP	39	192	7
TAP	39	288	6
TAP	39	288	7
TAP	40	0	6
TAP	40	96	5
TAP	40	192	3
TAP	40	288	2
TAP	40	288	4
TAP	41	0	1
TAP	41	96	2
TAP	41	192	4
TAP	41	288	3
TAP	41	288	5
TAP	42	0	6
TAP	42	96	5
TAP	42	192	3
TAP	42	288	2
TAP	42	288	4
STR	43	0	1
SCL	43	0	1	96	144	6
TAP	44	0	4
TAP	44	0	5
TAP	44	96	3
TAP	44	96	6
TAP	44	192	2
TAP	44	288	1
TAP	45	0	2
TAP	45	0	3
TAP	45	96	1
TAP	45	96	4
TAP	45	192	5
TAP	45	288	6
TAP	46	0	4
TAP	46	0	5
TAP	46	96	3
TAP	46	96	6
TAP	46	192	2
TAP	46	288	1
STR	47	0	0
SI_	47	0	0	96	144	4
TAP	48	0	2
TAP	48	96	4
TAP	48	192	5
TAP	48	288	4
TAP	48	288	6
TAP	49	0	5
TAP	49	96	3
TAP	49	192	2
TAP	49	288	1
TAP	49	288	3
TAP	50	0	2
TAP	50	96	4
TAP	50	192	5
TAP	50	288	4
TAP	50	288	6
TAP	51	0	5
TAP	51	96	3
TAP	51	192	2
TAP	51	288	1
TAP	51	288	3
HLD	52	0	0	192
HLD	52	0	1	192
TAP	52	288	0
TAP	52	288	1
HLD	53	0	0	192
HLD	53	0	7	192
TAP	53	288	0
TAP	53	288	7
HLD	54	0	6	192
HLD	54	0	7	192
STR	54	288	6
SI_	54	288	6	96	144	3
STR	54	288	7
SI_	54	288	7	96	144	2
TAP	57	0	6
TAP	57	96	5
TAP	57	192	3
TAP	57	288	2
TAP	57	288	4
TAP	58	0	1
TAP	58	96	2
TAP	58	192	4
TAP	58	288	3
TAP	58	288	5
TAP	59	0	6
TAP	59	96	5
TAP	59	192	3
TAP	59	288	2
TAP	59	288	4
TAP	60	0	1
TAP	60	96	0
TAP	60	96	1
TAP	60	192	0
TAP	60	192	7
TAP	60	288	0
TAP	60	288	1
TAP	61	0	1
TAP	61	96	2
TAP	61	192	4
TAP	61	288	3
TAP	61	288	5
TAP	62	0	6
TAP	62	96	5
TAP	62	192	3
TAP	62	288	2
TAP	62	288	4
TAP	63	0	1
TAP	63	96	2
TAP	63	192	4
TAP	63	288	3
TAP	63	288	5
STR	64	0	6
SCR	64	0	6	96	144	1

T_REC_TAP	218
T_REC_BRK	3
T_REC_XTP	0
T_REC_HLD	16
T_REC_XHO	0
T_REC_STR	9
T_REC_BST	0
T_REC_XST	0
T_REC_TTP	0
T_REC_THO	0
T_REC_SLD	9
T_REC_ALL	255
T_NUM_TAP	227
T_NUM_BRK	3
T_NUM_HLD	16
T_NUM_SLD	9
T_NUM_ALL	255
T_JUDGE_TAP	230
T_JUDGE_HLD	96
T_JUDGE_SLD	9
T_JUDGE_ALL	335
TTM_EACHPAIRS	61
TTM_SCR_TAP	113500
TTM_SCR_BRK	7800
TTM_SCR_HLD	16000
TTM_SCR_SLD	13500
TTM_SCR_ALL	150800
TTM_SCR_S	146000
TTM_SCR_SS	150500
TTM_RAT_ACV	10019

