VERSION	0.00.00	1.03.00
FES_MODE	0
BPM_DEF	135.000	135.000	135.000	135.000
MET_DEF	4	4
RESOLUTION	384
CLK_DEF	384
COMPATIBLE_CODE	MA2

BPM	0	0	135.000
MET	0	0	4	4

TAP	1	0	2
TAP	2	0	2
TAP	3	0	2
TAP	3	192	3
BRK	4	0	4
BRK	4	0	5
TAP	5	0	4
TAP	5	0	5
TAP	5	192	2
TAP	5	192	3
TAP	6	0	3
TAP	6	96	4
TAP	6	192	3
TAP	6	192	4
TAP	7	0	5
TAP	7	192	6
HLD	8	0	0	192
HLD	8	0	7	192
TAP	9	0	0
TAP	9	0	1
TAP	9	192	6
TAP	9	192	7
TAP	10	0	7
TAP	10	96	0
TAP	10	192	0
TAP	10	192	7
TAP	11	0	1
TAP	11	192	2
HLD	12	0	3	192
HLD	12	0	4	192
TAP	13	0	5
TAP	13	96	5
TAP	13	192	4
TAP	13	192	5
TAP	14	0	2
TAP	14	96	2
TAP	14	192	2
TAP	14	192	3
TAP	15	0	1
TAP	15	96	1
TAP	15	192	0
TAP	15	192	1
HLD	16	0	0	192
HLD	16	0	7	192
TAP	17	0	1
TAP	17	96	1
TAP	17	288	2
TAP	18	96	3
TAP	18	288	4
TAP	19	96	5
TAP	19	288	6
TAP	20	96	7
TAP	20	192	0
TAP	20	288	7
TAP	21	96	6
TAP	21	288	5
TAP	22	96	4
TAP	22	288	3
TAP	23	96	2
TAP	23	288	1
TAP	24	96	0
TAP	24	192	7
TAP	24	288	0
STR	25	0	7
SI_	25	0	7	96	192	3
TAP	27	0	1
TAP	27	96	1
TAP	27	192	1
TAP	27	288	0
TAP	27	288	7
TAP	28	0	6
TAP	28	96	6
TAP	28	192	6
TAP	28	288	0
TAP	28	288	7
HLD	29	0	1	192
HLD	30	0	6	192
STR	31	0	0
SI_	31	0	0	96	192	3
STR	33	0	7
SI_	33	0	7	96	192	4
TAP	35	0	3
TAP	35	0	4
TAP	35	192	3
TAP	35	192	4
TAP	36	0	2
TAP	36	96	2
TAP	36	192	2
TAP	37	0	1
TAP	37	96	1
TAP	37	192	1
TAP	38	0	0
TAP	38	0	7
TAP	38	192	0
TAP	38	192	7
TAP	39	0	0
TAP	39	96	7
TAP	39	192	0
TAP	40	0	6
TAP	40	96	6
TAP	40	192	6
TAP	41	0	5
TAP	41	96	5
TAP	41	192	5
TAP	42	0	3
TAP	42	0	4
TAP	42	192	3
TAP	42	192	4
HLD	43	0	2	288
HLD	43	0	5	288
TAP	44	0	2
TAP	44	96	2
TAP	44	192	1
TAP	44	192	3
TAP	45	0	5
TAP	45	96	5
TAP	45	192	4
TAP	45	192	6
TAP	46	0	3
TAP	46	96	4
TAP	46	192	3
TAP	46	192	4
BRK	47	0	2
BRK	47	0	5
TAP	48	0	6
TAP	48	96	6
TAP	48	288	5
TAP	49	96	4
TAP	49	288	3
TAP	50	96	2
TAP	50	288	1
TAP	51	96	0
TAP	51	192	7
TAP	51	288	0
STR	52	0	7
SI_	52	0	7	96	192	4
STR	53	0	0
SI_	53	0	0	96	192	3
STR	54	0	7
SI_	54	0	7	96	192	4
TAP	55	0	0
TAP	55	96	0
TAP	55	192	0
BRK	56	0	1
BRK	56	0	6
TAP	57	0	1
TAP	57	96	1
TAP	57	192	1
TAP	57	288	2
TAP	57	288	3
TAP	58	0	5
TAP	58	96	5
TAP	58	192	5
TAP	59	0	6
TAP	59	0	7
TAP	59	96	6
TAP	59	96	7
TAP	59	192	0
TAP	59	192	1
TAP	59	288	0
TAP	59	288	1
TAP	60	0	3
TAP	60	96	4
TAP	60	192	3
TAP	61	0	6
TAP	61	96	6
TAP	61	192	6
TAP	61	288	4
TAP	61	288	5
TAP	62	0	2
TAP	62	96	2
TAP	62	192	2
TAP	63	0	2
TAP	63	0	3
TAP	63	96	2
TAP	63	96	3
TAP	63	192	4
TAP	63	192	5
TAP	63	288	4
TAP	63	288	5
STR	64	0	3
SI_	64	0	3	96	192	0
STR	64	0	4
SI_	64	0	4	96	192	7

T_REC_TAP	152
T_REC_BRK	6
T_REC_XTP	0
T_REC_HLD	10
T_REC_XHO	0
T_REC_STR	8
T_REC_BST	0
T_REC_XST	0
T_REC_TTP	0
T_REC_THO	0
T_REC_SLD	8
T_REC_ALL	184
T_NUM_TAP	160
T_NUM_BRK	6
T_NUM_HLD	10
T_NUM_SLD	8
T_NUM_ALL	184
T_JUDGE_TAP	166
T_JUDGE_HLD	44
T_JUDGE_SLD	8
T_JUDGE_ALL	218
TTM_EACHPAIRS	38
TTM_SCR_TAP	80000
TTM_SCR_BRK	15600
TTM_SCR_HLD	10000
TTM_SCR_SLD	12000
TTM_SCR_ALL	117600
TTM_SCR_S	113500
TTM_SCR_SS	117000
TTM_RAT_ACV	10051

