VERSION	0.00.00	1.03.00
FES_MODE	0
BPM_DEF	163.000	163.000	163.000	163.000
MET_DEF	4	4
RESOLUTION	384
CLK_DEF	384
COMPATIBLE_CODE	MA2

BPM	0	0	163.000
MET	0	0	4	4

TAP	1	0	2
TAP	1	24	5
TAP	1	48	2
TAP	1	72	5
TAP	1	96	3
TAP	1	120	4
TAP	1	144	3
TAP	1	168	4
TAP	1	192	2
TAP	1	216	5
TAP	1	240	2
TAP	1	264	5
TAP	1	288	3
TAP	1	312	4
TAP	1	336	3
HLD	2	0	6	96
TAP	2	96	7
HLD	2	192	1	96
TAP	2	288	2
HLD	3	0	4	96
TAP	3	96	5
HLD	3	192	1	96
TAP	3	288	0
HLD	4	0	6	96
TAP	4	96	7
HLD	4	192	2	96
TAP	4	288	1
HLD	5	0	4	96
TAP	5	96	5
TAP	5	192	3
TAP	5	240	4
TAP	5	288	2
TAP	5	288	5
HLD	6	0	1	96
STR	6	0	5
SI_	6	0	5	96	48	0
STR	6	192	2
SI_	6	192	2	96	48	5
HLD	6	192	6	96
HLD	7	0	3	96
STR	7	0	7
SI_	7	0	7	96	48	2
STR	7	192	3
SI_	7	192	3	96	48	6
HLD	7	192	7	96
HLD	8	0	2	96
STR	8	0	6
SI_	8	0	6	96	48	1
STR	8	192	0
SI_	8	192	0	96	48	5
HLD	8	192	4	96
TAP	9	0	3
TAP	9	0	4
BRK	9	288	3
BRK	9	300	4
TAP	10	0	0
STR	10	0	1
SI_	10	0	1	96	48	6
TAP	10	96	1
TAP	10	96	4
TAP	10	192	4
STR	10	192	5
SI_	10	192	5	96	48	2
TAP	10	288	0
TAP	10	288	5
TAP	11	0	1
TAP	11	48	7
TAP	11	144	6
TAP	11	192	0
TAP	11	240	7
TAP	11	288	1
TAP	11	288	6
STR	12	0	6
SI_	12	0	6	96	48	1
TAP	12	0	7
TAP	12	96	3
TAP	12	96	6
STR	12	192	2
SI_	12	192	2	96	48	5
TAP	12	192	3
TAP	12	288	2
TAP	12	288	7
TAP	13	0	6
TAP	13	48	0
TAP	13	144	1
TAP	13	192	7
TAP	13	240	0
TAP	13	288	1
TAP	13	288	6
STR	14	0	1
SI_	14	0	1	96	48	6
STR	14	0	5
SI_	14	0	5	96	48	2
TAP	14	96	1
TAP	14	96	5
STR	14	192	0
SI_	14	192	0	96	48	3
STR	14	192	4
SI_	14	192	4	96	48	7
TAP	14	288	0
TAP	14	288	4
TAP	15	0	4
TAP	15	48	3
TAP	15	48	5
TAP	15	144	2
TAP	15	144	4
STR	15	192	0
SI_	15	192	0	96	48	4
STR	15	192	7
SI_	15	192	7	96	48	3
TAP	15	240	1
TAP	15	240	6
TAP	15	288	0
TAP	15	288	7
STR	16	0	2
SI_	16	0	2	96	48	7
STR	16	0	6
SI_	16	0	6	96	48	3
TAP	16	96	2
TAP	16	96	6
STR	16	192	1
SI_	16	192	1	96	48	4
STR	16	192	5
SI_	16	192	5	96	48	0
TAP	16	288	1
TAP	16	288	5
TAP	17	0	3
TAP	17	48	2
TAP	17	48	4
TAP	17	144	3
TAP	17	144	5
TAP	17	192	1
TAP	17	192	6
TAP	17	240	0
TAP	17	264	7
TAP	17	288	1
TAP	17	312	6
TAP	17	336	2
TAP	17	360	5
STR	18	0	3
SCL	18	0	3	96	96	0
TAP	18	96	4
STR	18	192	5
SCL	18	192	5	96	96	2
TAP	18	288	6
STR	19	0	7
SCL	19	0	7	96	96	4
TAP	19	96	0
STR	19	192	1
SCL	19	192	1	96	96	6
TAP	19	240	1
TAP	19	312	2
STR	20	0	2
SI_	20	0	2	96	192	6
STR	20	288	4
SXR	20	288	4	96	288	0
TAP	21	0	4
TAP	21	288	7
STR	22	0	4
SCR	22	0	4	96	96	7
TAP	22	96	3
STR	22	192	2
SCR	22	192	2	96	96	5
TAP	22	288	1
STR	23	0	0
SCR	23	0	0	96	96	3
TAP	23	96	7
STR	23	192	6
SCR	23	192	6	96	96	1
TAP	23	264	6
TAP	23	336	5
STR	24	0	5
SXL	24	0	5	96	192	1
TAP	25	0	4
TAP	25	48	3
TAP	25	48	5
TAP	25	144	0
TAP	25	192	6
TAP	25	240	2
TAP	25	288	3
TAP	25	288	4
STR	26	0	1
SI_	26	0	1	96	48	5
TAP	26	0	3
TAP	26	96	1
TAP	26	96	7
TAP	26	192	4
STR	26	192	6
SI_	26	192	6	96	48	2
TAP	26	288	0
TAP	26	288	6
STR	27	0	0
SI_	27	0	0	96	48	3
STR	27	96	0
SI_	27	96	0	96	48	5
STR	27	192	0
SI_	27	192	0	96	48	4
STR	27	288	0
SUL	27	288	0	96	288	5
SUR	27	288	0	96	288	3
TAP	28	0	0
TAP	29	0	0
TAP	29	96	1
TAP	29	96	7
TAP	29	192	2
TAP	29	240	3
TAP	29	288	4
TAP	29	336	5
STR	30	0	0
SV_	30	0	0	96	48	3
STR	30	0	6
SV_	30	0	6	96	48	3
TAP	30	96	0
TAP	30	96	6
STR	30	192	1
SV_	30	192	1	96	48	4
STR	30	192	7
SV_	30	192	7	96	48	4
TAP	30	288	1
TAP	30	288	7
STR	31	0	6
SCL	31	0	6	96	48	3
STR	31	96	1
SCR	31	96	1	96	48	4
STR	31	192	7
SUL	31	192	7	96	48	2
TAP	31	264	7
STR	31	336	0
SSL	31	336	0	96	240	4
TAP	32	0	0
TAP	33	0	3
TAP	33	48	2
TAP	33	48	4
TAP	33	144	7
TAP	33	192	1
TAP	33	240	5
TAP	33	288	3
TAP	33	288	4
HLD	34	0	2	144
HLD	34	0	4	144
TAP	34	192	1
TAP	34	192	5
TAP	34	288	6
TAP	34	288	7
TAP	35	0	0
TAP	35	0	4
TAP	35	48	2
TAP	35	48	6
TAP	35	144	3
TAP	35	144	7
TAP	35	192	1
TAP	35	192	5
TAP	35	288	3
TAP	35	288	4
HLD	36	0	3	144
HLD	36	0	5	144
TAP	36	192	2
TAP	36	192	6
TAP	36	288	0
TAP	36	288	1
TAP	37	0	3
TAP	37	0	7
TAP	37	48	1
TAP	37	48	5
TAP	37	144	0
TAP	37	144	4
TAP	37	192	2
TAP	37	192	6
TAP	37	288	3
TAP	37	288	4
STR	38	0	2
SI_	38	0	2	96	48	7
TAP	38	96	2
TAP	38	96	4
STR	38	192	5
SI_	38	192	5	96	48	0
TAP	38	288	3
TAP	38	288	5
STR	39	0	2
SI_	39	0	2	96	48	7
STR	39	0	3
SI_	39	0	3	96	48	7
TAP	39	96	2
TAP	39	96	3
STR	39	192	4
SI_	39	192	4	96	48	0
STR	39	192	5
SI_	39	192	5	96	48	0
TAP	39	288	4
TAP	39	288	5
STR	40	0	1
SXL	40	0	1	96	192	0
STR	40	0	6
SXR	40	0	6	96	192	7
BRK	41	0	3
BRK	41	0	7
BRK	41	72	0
BRK	41	72	4
BRK	41	144	2
BRK	41	144	6
STR	41	192	0
SI_	41	192	0	96	48	4
STR	41	192	1
SI_	41	192	1	96	48	5
TAP	41	240	2
TAP	41	240	7
TAP	41	288	0
TAP	41	288	1
STR	42	0	6
SI_	42	0	6	96	48	3
TAP	42	48	6
STR	42	96	2
SI_	42	96	2	96	48	6
TAP	42	144	2
STR	42	192	7
SI_	42	192	7	96	48	2
TAP	42	240	7
STR	42	288	1
SI_	42	288	1	96	48	5
TAP	42	336	1
TAP	43	0	3
TAP	43	48	2
TAP	43	96	1
TAP	43	144	0
STR	43	192	6
SI_	43	192	6	96	48	2
STR	43	192	7
SI_	43	192	7	96	48	3
TAP	43	240	0
TAP	43	240	5
TAP	43	288	6
TAP	43	288	7
STR	44	0	1
SI_	44	0	1	96	48	4
TAP	44	48	1
STR	44	96	5
SI_	44	96	5	96	48	1
TAP	44	144	5
STR	44	192	0
SI_	44	192	0	96	48	5
TAP	44	240	0
STR	44	288	6
SI_	44	288	6	96	48	2
TAP	44	336	6
TAP	45	0	3
TAP	45	48	4
TAP	45	96	5
TAP	45	144	6
TAP	45	192	7
TAP	45	240	0
STR	45	288	0
SXL	45	288	0	96	96	7
TAP	46	0	0
STR	46	0	7
SCL	46	0	7	96	96	0
STR	46	192	7
SI_	46	192	7	96	48	3
TAP	46	288	7
TAP	46	336	0
STR	47	0	1
SI_	47	0	1	96	48	4
STR	47	0	6
SI_	47	0	6	96	48	3
TAP	47	96	1
TAP	47	96	6
TAP	47	192	3
TAP	47	192	5
TAP	47	264	1
TAP	47	264	4
TAP	47	336	2
TAP	47	336	6
STR	48	0	0
SI_	48	0	0	96	48	5
TAP	48	0	4
TAP	48	48	0
STR	48	96	7
SI_	48	96	7	96	48	2
TAP	48	144	7
STR	48	192	1
SI_	48	192	1	96	48	4
TAP	48	240	1
STR	48	288	6
SI_	48	288	6	96	48	3
TAP	48	336	6
STR	49	0	0
SI_	49	0	0	96	48	4
TAP	49	48	0
BRK	49	96	7
TAP	49	144	5
STR	49	192	2
SI_	49	192	2	96	48	6
STR	49	192	3
SI_	49	192	3	96	48	7
TAP	49	240	1
TAP	49	240	4
TAP	49	288	2
TAP	49	288	3
STR	50	0	5
SI_	50	0	5	96	48	0
TAP	50	48	5
STR	50	96	1
SI_	50	96	1	96	48	5
TAP	50	144	1
STR	50	192	4
SI_	50	192	4	96	48	1
TAP	50	240	4
STR	50	288	2
SI_	50	288	2	96	48	6
TAP	50	336	2
TAP	51	0	0
TAP	51	48	1
TAP	51	96	2
TAP	51	144	3
STR	51	192	4
SI_	51	192	4	96	48	0
STR	51	192	5
SI_	51	192	5	96	48	1
TAP	51	240	3
TAP	51	240	6
TAP	51	288	4
TAP	51	288	5
STR	52	0	2
SI_	52	0	2	96	48	7
TAP	52	48	2
STR	52	96	6
SI_	52	96	6	96	48	2
TAP	52	144	6
STR	52	192	3
SI_	52	192	3	96	48	6
TAP	52	240	3
STR	52	288	5
SI_	52	288	5	96	48	1
TAP	52	336	5
TAP	53	0	0
TAP	53	48	7
TAP	53	96	6
TAP	53	144	5
TAP	53	192	4
TAP	53	240	3
STR	53	288	3
SXR	53	288	3	96	96	4
TAP	54	0	3
STR	54	0	4
SCR	54	0	4	96	96	3
STR	54	192	4
SI_	54	192	4	96	48	0
TAP	54	288	4
TAP	54	336	1
STR	55	0	2
SI_	55	0	2	96	48	7
STR	55	0	3
SI_	55	0	3	96	48	6
TAP	55	192	0
TAP	55	192	1
TAP	55	288	6
TAP	55	288	7
STR	56	0	3
SCR	56	0	3	96	48	7
SUL	56	0	3	96	48	7
STR	56	192	4
SCL	56	192	4	96	48	0
SUR	56	192	4	96	48	0
STR	57	0	2
SLR	57	0	2	96	96	7
STR	57	0	5
SLL	57	0	5	96	96	0
BRK	57	288	1
BRK	57	288	6
STR	58	0	1
SI_	58	0	1	96	48	4
STR	58	48	4
SI_	58	48	4	96	48	0
TAP	58	96	1
STR	58	192	6
SI_	58	192	6	96	48	3
STR	58	240	3
SI_	58	240	3	96	48	7
TAP	58	288	6
TAP	59	0	1
TAP	59	48	0
TAP	59	48	2
TAP	59	96	3
TAP	59	144	4
TAP	59	192	5
TAP	59	192	7
TAP	59	240	0
TAP	59	288	1
STR	60	0	6
SI_	60	0	6	96	48	3
STR	60	48	3
SI_	60	48	3	96	48	7
TAP	60	96	6
STR	60	192	1
SI_	60	192	1	96	48	4
STR	60	240	4
SI_	60	240	4	96	48	0
TAP	60	288	1
TAP	61	0	6
TAP	61	48	5
TAP	61	48	7
TAP	61	96	4
TAP	61	144	3
TAP	61	192	0
TAP	61	192	2
TAP	61	240	1
TAP	61	264	0
TAP	61	288	2
TAP	61	312	7
TAP	61	336	3
TAP	61	360	6
BST	62	0	4
SF_	62	0	4	96	672	0

T_REC_TAP	271
T_REC_BRK	11
T_REC_XTP	0
T_REC_HLD	17
T_REC_XHO	0
T_REC_STR	104
T_REC_BST	1
T_REC_XST	0
T_REC_TTP	0
T_REC_THO	0
T_REC_SLD	108
T_REC_ALL	512
T_NUM_TAP	375
T_NUM_BRK	12
T_NUM_HLD	17
T_NUM_SLD	108
T_NUM_ALL	512
T_JUDGE_TAP	387
T_JUDGE_HLD	38
T_JUDGE_SLD	108
T_JUDGE_ALL	533
TTM_EACHPAIRS	102
TTM_SCR_TAP	187500
TTM_SCR_BRK	31200
TTM_SCR_HLD	17000
TTM_SCR_SLD	162000
TTM_SCR_ALL	397700
TTM_SCR_S	384650
TTM_SCR_SS	396500
TTM_RAT_ACV	10030

