VERSION	0.00.00	1.03.00
FES_MODE	0
BPM_DEF	163.000	163.000	163.000	163.000
MET_DEF	4	4
RESOLUTION	384
CLK_DEF	384
COMPATIBLE_CODE	MA2

BPM	0	0	163.000
MET	0	0	4	4

TAP	1	0	2
TAP	1	24	3
TAP	1	48	2
TAP	1	96	5
TAP	1	120	4
TAP	1	144	5
TAP	1	192	3
TAP	1	216	4
TAP	1	240	3
TAP	1	288	2
TAP	1	288	5
TAP	2	0	2
STR	2	0	3
SI_	2	0	3	96	48	7
STR	2	192	4
SI_	2	192	4	96	48	0
TAP	2	192	5
TAP	3	0	1
STR	3	0	3
SI_	3	0	3	96	48	7
STR	3	192	4
SI_	3	192	4	96	48	0
TAP	3	192	6
STR	4	0	1
SI_	4	0	1	96	48	6
TAP	4	0	2
STR	4	192	5
SI_	4	192	5	96	48	2
TAP	4	192	6
HLD	5	0	2	288
HLD	5	0	6	288
STR	6	0	0
SCL	6	0	0	96	48	6
TAP	6	0	1
TAP	6	192	6
STR	6	192	7
SCR	6	192	7	96	48	1
TAP	7	0	0
STR	7	0	1
SCR	7	0	1	96	48	3
STR	7	192	6
SCL	7	192	6	96	48	4
TAP	7	192	7
STR	8	0	1
SCL	8	0	1	96	96	6
STR	8	96	6
SCL	8	96	6	96	96	3
STR	8	192	3
SCL	8	192	3	96	96	0
STR	8	288	0
SSL	8	288	0	96	192	4
BRK	9	288	7
STR	10	0	1
SI_	10	0	1	96	48	5
TAP	10	0	7
TAP	10	96	3
TAP	10	192	0
STR	10	192	6
SI_	10	192	6	96	48	2
TAP	10	288	4
TAP	11	48	2
TAP	11	48	3
TAP	11	144	1
TAP	11	192	4
TAP	11	240	7
TAP	11	288	6
TAP	12	0	0
STR	12	0	2
SI_	12	0	2	96	48	6
TAP	12	96	4
STR	12	192	5
SI_	12	192	5	96	48	1
TAP	12	192	7
TAP	12	288	3
TAP	13	48	4
TAP	13	48	5
TAP	13	144	6
TAP	13	192	3
TAP	13	240	0
TAP	13	288	1
STR	14	0	1
SI_	14	0	1	96	48	4
STR	14	0	7
SCL	14	0	7	96	48	5
STR	14	192	0
SCR	14	192	0	96	48	2
STR	14	192	6
SI_	14	192	6	96	48	3
TAP	15	48	1
TAP	15	48	2
TAP	15	144	7
TAP	15	192	4
TAP	15	240	7
TAP	15	288	4
STR	16	0	0
SI_	16	0	0	96	48	4
STR	16	0	5
SI_	16	0	5	96	48	7
STR	16	192	2
SI_	16	192	2	96	48	0
STR	16	192	7
SI_	16	192	7	96	48	3
STR	17	48	0
SSL	17	48	0	96	144	4
BRK	17	288	7
HLD	18	0	0	192
HLD	18	192	1	192
HLD	19	0	2	336
STR	19	240	7
SCL	19	240	7	96	192	3
TAP	19	336	7
TAP	20	0	2
TAP	20	288	2
HLD	21	0	2	288
TAP	21	288	3
HLD	22	0	7	192
HLD	22	192	6	192
HLD	23	0	5	192
TAP	23	192	0
TAP	23	264	0
TAP	23	336	5
STR	24	0	5
SCR	24	0	5	96	192	2
TAP	25	48	1
TAP	25	144	0
TAP	25	144	2
TAP	25	192	1
TAP	25	240	1
TAP	25	288	0
TAP	25	288	2
STR	26	0	1
SI_	26	0	1	96	144	5
TAP	26	240	7
TAP	26	336	6
STR	27	0	2
SI_	27	0	2	96	48	7
STR	27	96	5
SI_	27	96	5	96	48	0
STR	27	192	3
SI_	27	192	3	96	48	6
STR	28	0	3
SCR	28	0	3	96	96	6
STR	28	0	7
SCR	28	0	7	96	96	2
TAP	28	240	3
TAP	28	240	7
TAP	28	336	5
TAP	29	48	0
TAP	29	48	4
TAP	29	144	2
TAP	29	192	5
TAP	29	240	1
TAP	29	288	4
TAP	29	336	0
HLD	30	0	3	192
TAP	30	192	7
TAP	30	264	6
TAP	30	336	5
TAP	31	0	5
HLD	31	96	0	96
HLD	31	192	1	72
HLD	31	264	4	72
STR	31	336	2
SI_	31	336	2	96	48	6
TAP	32	0	2
STR	32	48	4
SI_	32	48	4	96	48	0
STR	32	144	3
SI_	32	144	3	96	48	7
STR	32	240	5
SI_	32	240	5	96	48	1
STR	32	336	7
SI_	32	336	7	96	48	3
TAP	33	144	5
TAP	33	192	1
TAP	33	240	6
BRK	33	288	0
TAP	34	0	6
TAP	34	48	6
TAP	34	144	0
TAP	34	144	7
TAP	34	192	1
TAP	34	192	7
TAP	34	240	2
TAP	34	240	7
TAP	34	336	0
TAP	34	336	7
TAP	35	0	0
TAP	35	0	6
TAP	35	48	0
TAP	35	48	5
TAP	35	144	3
TAP	35	192	4
BRK	35	288	3
BRK	35	288	4
TAP	36	0	1
TAP	36	48	1
TAP	36	144	3
TAP	36	144	4
TAP	36	192	2
TAP	36	192	4
TAP	36	240	1
TAP	36	240	4
TAP	36	336	3
TAP	36	336	4
TAP	37	0	3
TAP	37	0	5
TAP	37	48	3
TAP	37	48	6
TAP	37	144	0
TAP	37	192	7
BRK	37	288	3
BRK	37	288	4
TAP	38	0	0
TAP	38	48	4
TAP	38	96	0
TAP	38	144	4
TAP	38	192	1
TAP	38	240	5
TAP	38	288	1
TAP	38	336	5
TAP	39	0	2
TAP	39	48	6
TAP	39	96	2
TAP	39	144	6
TAP	39	192	3
TAP	39	240	7
TAP	39	288	3
TAP	39	336	7
TAP	40	0	3
TAP	40	24	2
TAP	40	48	1
TAP	40	72	0
TAP	40	96	7
TAP	40	120	6
TAP	40	144	5
TAP	40	168	4
TAP	40	192	3
TAP	40	216	2
TAP	40	240	1
TAP	40	264	0
BRK	40	288	7
TAP	41	0	1
TAP	41	0	4
TAP	41	72	0
TAP	41	72	5
BRK	41	144	6
BRK	41	144	7
TAP	41	192	0
TAP	41	192	2
TAP	41	240	1
STR	41	288	1
SCL	41	288	1	96	48	7
STR	42	0	3
SI_	42	0	3	96	48	7
TAP	42	96	3
STR	42	192	6
SI_	42	192	6	96	48	3
TAP	42	288	6
TAP	43	48	0
STR	43	96	7
SCR	43	96	7	96	96	2
TAP	43	144	6
TAP	43	192	5
TAP	43	240	4
TAP	43	288	3
STR	44	0	1
SCL	44	0	1	96	96	6
TAP	44	48	2
TAP	44	96	3
TAP	44	144	4
STR	44	192	5
SCL	44	192	5	96	96	2
TAP	44	240	6
TAP	44	288	7
TAP	44	336	0
TAP	45	48	6
TAP	45	96	5
TAP	45	144	4
TAP	45	192	3
TAP	45	240	2
STR	45	288	1
SUR	45	288	1	96	96	6
TAP	46	0	4
TAP	46	96	4
TAP	46	192	3
TAP	46	288	0
TAP	46	288	3
STR	47	0	6
SI_	47	0	6	96	96	2
TAP	47	192	0
TAP	47	264	6
TAP	47	336	4
STR	48	0	3
SCR	48	0	3	96	96	6
TAP	48	48	2
TAP	48	96	1
TAP	48	144	0
STR	48	192	7
SCR	48	192	7	96	96	2
TAP	48	240	6
TAP	48	288	5
TAP	48	336	4
TAP	49	48	6
STR	49	144	0
SV_	49	144	0	96	48	1
STR	49	192	4
SV_	49	192	4	96	48	5
STR	50	0	1
SCR	50	0	1	96	48	4
STR	50	96	5
SCR	50	96	5	96	48	0
STR	50	192	5
SI_	50	192	5	96	48	1
TAP	50	288	5
TAP	51	48	2
TAP	51	96	3
TAP	51	144	3
TAP	51	192	4
TAP	51	240	4
TAP	51	288	5
STR	52	0	7
SI_	52	0	7	96	48	3
TAP	52	48	0
TAP	52	96	1
TAP	52	144	2
STR	52	192	3
SI_	52	192	3	96	48	7
TAP	52	240	4
TAP	52	288	5
TAP	52	336	6
TAP	53	48	6
TAP	53	96	2
TAP	53	144	4
TAP	53	192	0
TAP	53	240	7
TAP	53	288	3
STR	54	0	5
SI_	54	0	5	96	96	1
TAP	54	192	6
TAP	54	288	7
TAP	54	336	0
STR	55	0	1
SCL	55	0	1	96	96	6
STR	55	96	6
SCL	55	96	6	96	96	3
STR	55	192	3
SCL	55	192	3	96	96	0
STR	55	288	0
SCL	55	288	0	96	96	5
STR	56	0	5
SI_	56	0	5	96	96	0
STR	56	96	0
SI_	56	96	0	96	96	3
STR	56	192	3
SI_	56	192	3	96	96	6
STR	56	288	6
SCL	56	288	6	96	96	3
STR	57	0	3
SI_	57	0	3	96	96	7
STR	57	96	7
SCR	57	96	7	96	96	2
STR	57	192	2
SUL	57	192	2	96	96	4
STR	58	0	6
SI_	58	0	6	96	48	3
STR	58	96	2
SI_	58	96	2	96	48	7
STR	58	192	4
SI_	58	192	4	96	48	7
TAP	58	288	4
TAP	59	48	0
TAP	59	48	7
TAP	59	144	1
TAP	59	192	0
TAP	59	192	2
TAP	59	240	5
TAP	59	288	4
TAP	59	288	6
STR	60	0	6
SI_	60	0	6	96	48	3
STR	60	96	2
SI_	60	96	2	96	48	7
STR	60	192	4
SI_	60	192	4	96	48	7
TAP	60	288	4
TAP	61	48	0
TAP	61	48	7
TAP	61	144	6
TAP	61	192	5
TAP	61	192	7
TAP	61	240	2
TAP	61	288	1
TAP	61	288	3
STR	62	0	3
SCR	62	0	3	96	960	1

T_REC_TAP	221
T_REC_BRK	10
T_REC_XTP	0
T_REC_HLD	13
T_REC_XHO	0
T_REC_STR	76
T_REC_BST	0
T_REC_XST	0
T_REC_TTP	0
T_REC_THO	0
T_REC_SLD	76
T_REC_ALL	396
T_NUM_TAP	297
T_NUM_BRK	10
T_NUM_HLD	13
T_NUM_SLD	76
T_NUM_ALL	396
T_JUDGE_TAP	307
T_JUDGE_HLD	55
T_JUDGE_SLD	76
T_JUDGE_ALL	438
TTM_EACHPAIRS	53
TTM_SCR_TAP	148500
TTM_SCR_BRK	26000
TTM_SCR_HLD	13000
TTM_SCR_SLD	114000
TTM_SCR_ALL	301500
TTM_SCR_S	291500
TTM_SCR_SS	300500
TTM_RAT_ACV	10033

