VERSION	0.00.00	1.03.00
FES_MODE	0
BPM_DEF	163.000	163.000	163.000	163.000
MET_DEF	4	4
RESOLUTION	384
CLK_DEF	384
COMPATIBLE_CODE	MA2

BPM	0	0	163.000
MET	0	0	4	4

TAP	1	0	1
TAP	1	0	6
TAP	1	96	2
TAP	1	96	5
TAP	1	192	3
TAP	1	240	4
TAP	1	288	3
HLD	2	0	5	192
HLD	2	192	6	192
HLD	3	0	7	192
HLD	3	192	0	192
HLD	4	0	1	192
HLD	4	192	2	384
HLD	5	0	5	192
HLD	6	0	1	192
HLD	6	192	2	192
HLD	7	0	3	192
HLD	7	192	4	192
HLD	8	0	5	192
HLD	8	192	6	384
HLD	9	0	1	192
BRK	9	288	0
BRK	9	288	7
HLD	10	0	2	96
TAP	10	96	3
HLD	10	192	5	96
TAP	10	288	4
STR	11	48	6
SI_	11	48	6	96	48	3
TAP	11	192	2
TAP	11	288	3
TAP	11	288	4
HLD	12	0	5	96
TAP	12	96	4
HLD	12	192	2	96
TAP	12	288	3
STR	13	48	1
SI_	13	48	1	96	48	4
TAP	13	192	5
TAP	13	288	3
TAP	13	288	4
HLD	14	0	2	96
TAP	14	96	1
HLD	14	192	5	96
TAP	14	288	6
STR	15	48	7
SI_	15	48	7	96	48	3
TAP	15	192	2
TAP	15	288	2
TAP	15	288	4
HLD	16	0	5	96
TAP	16	96	6
HLD	16	192	2	96
TAP	16	288	1
STR	17	48	0
SI_	17	48	0	96	48	4
TAP	17	192	5
TAP	17	288	3
TAP	17	288	5
TAP	18	0	7
TAP	18	96	6
TAP	18	192	5
TAP	18	288	3
TAP	18	288	4
TAP	19	0	2
TAP	19	96	1
TAP	19	192	0
TAP	19	288	6
TAP	19	288	7
TAP	20	0	0
TAP	20	96	1
TAP	20	192	2
TAP	20	288	3
TAP	20	288	4
TAP	21	0	5
TAP	21	96	6
TAP	21	192	7
TAP	21	288	0
TAP	21	288	1
TAP	22	0	2
TAP	22	96	3
TAP	22	192	2
TAP	22	288	1
TAP	22	288	4
TAP	23	0	5
TAP	23	96	4
TAP	23	192	5
TAP	23	288	3
TAP	23	288	6
TAP	24	0	7
TAP	24	96	0
TAP	24	192	1
TAP	24	288	2
TAP	24	288	7
TAP	25	0	0
TAP	25	96	7
TAP	25	192	6
TAP	25	288	0
TAP	25	288	5
HLD	26	0	4	192
TAP	26	192	6
TAP	26	288	5
TAP	26	288	6
HLD	27	0	3	192
TAP	27	192	1
TAP	27	288	1
TAP	27	288	2
HLD	28	0	5	192
TAP	28	192	7
TAP	28	288	0
TAP	28	288	7
TAP	29	0	1
TAP	29	0	2
TAP	29	96	2
TAP	29	96	3
TAP	29	192	4
TAP	29	192	5
TAP	29	288	5
TAP	29	288	6
HLD	30	0	7	192
TAP	30	192	5
TAP	30	288	5
TAP	30	288	6
HLD	31	0	0	192
TAP	31	192	2
TAP	31	288	1
TAP	31	288	2
HLD	32	0	6	192
TAP	32	192	4
TAP	32	288	3
TAP	32	288	4
TAP	33	0	1
TAP	33	0	2
TAP	33	96	0
TAP	33	96	1
TAP	33	192	6
TAP	33	192	7
TAP	33	288	5
TAP	33	288	6
STR	34	0	4
SI_	34	0	4	96	48	0
TAP	34	192	1
TAP	34	192	7
TAP	34	288	2
TAP	34	288	6
STR	35	0	3
SI_	35	0	3	96	48	7
TAP	35	192	0
TAP	35	192	6
TAP	35	288	1
TAP	35	288	5
HLD	36	0	2	192
TAP	36	96	3
HLD	36	192	3	192
TAP	36	288	4
HLD	37	0	4	192
TAP	37	96	5
HLD	37	192	5	192
TAP	37	288	6
STR	38	0	6
SI_	38	0	6	96	48	2
STR	38	192	5
SI_	38	192	5	96	48	2
STR	39	0	1
SI_	39	0	1	96	48	5
STR	39	192	2
SI_	39	192	2	96	48	5
STR	40	0	4
SCR	40	0	4	96	192	3
TAP	41	0	3
TAP	41	0	4
TAP	41	72	3
TAP	41	72	4
BRK	41	144	1
BRK	41	144	6
HLD	42	0	2	96
TAP	42	96	3
HLD	42	192	2	96
TAP	42	288	1
TAP	43	48	0
TAP	43	96	7
TAP	43	144	1
TAP	43	192	6
TAP	43	240	2
TAP	43	288	5
HLD	44	0	5	96
TAP	44	96	4
HLD	44	192	5	96
TAP	44	288	6
TAP	45	48	7
TAP	45	96	0
TAP	45	144	6
TAP	45	192	1
TAP	45	240	5
TAP	45	288	2
HLD	46	0	3	96
TAP	46	96	4
TAP	46	192	2
TAP	46	192	5
TAP	46	288	1
TAP	46	336	3
TAP	47	0	1
TAP	47	96	6
TAP	47	144	4
TAP	47	192	6
TAP	47	288	2
TAP	47	336	5
TAP	48	0	2
TAP	48	96	3
TAP	48	96	4
TAP	48	192	2
TAP	48	192	5
TAP	48	288	1
TAP	48	288	6
TAP	49	48	6
TAP	49	96	5
TAP	49	144	4
TAP	49	192	3
TAP	49	240	2
TAP	49	288	1
HLD	50	0	2	96
TAP	50	0	3
TAP	50	96	6
TAP	50	192	4
HLD	50	192	5	96
TAP	50	288	1
TAP	51	48	0
TAP	51	96	7
TAP	51	144	1
TAP	51	192	6
TAP	51	240	2
TAP	51	288	5
TAP	52	0	5
HLD	52	0	6	96
TAP	52	96	0
HLD	52	192	1	96
TAP	52	192	2
TAP	52	288	7
TAP	53	48	4
TAP	53	96	3
TAP	53	144	5
TAP	53	192	2
TAP	53	240	6
TAP	53	288	1
HLD	54	0	0	96
TAP	54	96	7
TAP	54	192	1
TAP	54	192	6
TAP	54	288	0
TAP	54	336	1
STR	55	0	2
SUL	55	0	2	96	48	5
TAP	55	192	6
TAP	55	192	7
TAP	55	288	0
TAP	55	288	1
STR	56	0	2
SI_	56	0	2	96	48	7
STR	56	0	3
SI_	56	0	3	96	48	7
STR	56	192	4
SI_	56	192	4	96	48	0
STR	56	192	5
SI_	56	192	5	96	48	0
TAP	57	0	1
TAP	57	0	7
TAP	57	96	2
TAP	57	96	6
TAP	57	192	5
TAP	57	240	4
TAP	57	288	3
TAP	57	336	2
HLD	58	0	1	96
TAP	58	96	0
HLD	58	192	6	96
TAP	58	288	7
STR	59	48	2
SI_	59	48	2	96	48	7
TAP	59	192	6
TAP	59	288	6
TAP	59	288	7
HLD	60	0	5	96
TAP	60	96	6
HLD	60	192	2	96
TAP	60	288	1
STR	61	48	4
SI_	61	48	4	96	48	0
TAP	61	192	1
TAP	61	288	1
TAP	61	288	7
HLD	62	0	0	768
STR	62	0	3
SI_	62	0	3	96	672	7

T_REC_TAP	204
T_REC_BRK	4
T_REC_XTP	0
T_REC_HLD	47
T_REC_XHO	0
T_REC_STR	19
T_REC_BST	0
T_REC_XST	0
T_REC_TTP	0
T_REC_THO	0
T_REC_SLD	19
T_REC_ALL	293
T_NUM_TAP	223
T_NUM_BRK	4
T_NUM_HLD	47
T_NUM_SLD	19
T_NUM_ALL	293
T_JUDGE_TAP	227
T_JUDGE_HLD	164
T_JUDGE_SLD	19
T_JUDGE_ALL	410
TTM_EACHPAIRS	54
TTM_SCR_TAP	111500
TTM_SCR_BRK	10400
TTM_SCR_HLD	47000
TTM_SCR_SLD	28500
TTM_SCR_ALL	197400
TTM_SCR_S	191100
TTM_SCR_SS	197000
TTM_RAT_ACV	10020

