VERSION	0.00.00	1.03.00
FES_MODE	0
BPM_DEF	163.000	163.000	163.000	163.000
MET_DEF	4	4
RESOLUTION	384
CLK_DEF	384
COMPATIBLE_CODE	MA2

BPM	0	0	163.000
MET	0	0	4	4

TAP	2	0	2
TAP	2	96	2
TAP	2	192	0
TAP	2	288	0
TAP	3	0	5
TAP	3	96	5
TAP	3	192	7
TAP	3	288	7
TAP	4	0	2
TAP	4	96	3
TAP	4	192	4
TAP	4	288	5
HLD	5	0	1	192
HLD	5	0	6	192
TAP	6	0	3
TAP	6	96	3
TAP	6	192	4
TAP	6	288	4
TAP	7	0	1
TAP	7	96	1
TAP	7	192	6
TAP	7	288	6
TAP	8	0	1
TAP	8	96	0
TAP	8	192	7
TAP	8	288	6
STR	9	0	0
SCR	9	0	0	96	144	3
STR	9	0	7
SCL	9	0	7	96	144	4
TAP	10	0	3
TAP	10	0	4
TAP	10	96	2
TAP	10	192	3
TAP	10	192	4
TAP	10	288	5
TAP	11	96	6
TAP	11	96	7
TAP	11	192	0
TAP	11	192	7
TAP	11	288	0
TAP	11	288	1
TAP	12	0	3
TAP	12	0	4
TAP	12	96	5
TAP	12	192	3
TAP	12	192	4
TAP	12	288	2
TAP	13	96	0
TAP	13	96	1
TAP	13	192	0
TAP	13	192	7
TAP	13	288	6
TAP	13	288	7
TAP	14	0	0
TAP	14	0	7
TAP	14	96	1
TAP	14	192	0
TAP	14	192	7
TAP	14	288	6
TAP	15	96	4
TAP	15	96	5
TAP	15	192	3
TAP	15	192	4
TAP	15	288	2
TAP	15	288	3
TAP	16	0	0
TAP	16	0	7
TAP	16	96	6
TAP	16	192	0
TAP	16	192	7
TAP	16	288	1
TAP	17	96	2
TAP	17	96	3
TAP	17	192	3
TAP	17	192	4
TAP	17	288	4
TAP	17	288	5
HLD	18	0	7	192
HLD	18	192	6	192
HLD	19	0	5	288
STR	19	288	4
SI_	19	288	4	96	192	0
TAP	21	288	7
HLD	22	0	0	192
HLD	22	192	1	192
HLD	23	0	2	192
TAP	23	192	3
STR	23	288	3
SI_	23	288	3	96	192	7
TAP	25	48	0
TAP	25	48	7
TAP	25	144	0
TAP	25	144	7
BRK	25	192	0
BRK	25	192	7
TAP	26	0	0
TAP	26	96	2
TAP	26	192	3
TAP	26	288	1
TAP	27	0	7
TAP	27	96	5
TAP	27	192	4
TAP	27	288	6
TAP	28	0	1
TAP	28	96	0
TAP	28	192	7
TAP	28	288	6
TAP	29	0	5
TAP	29	96	4
TAP	29	192	3
TAP	29	288	2
HLD	30	0	1	192
TAP	30	192	2
HLD	31	0	6	192
TAP	31	192	5
STR	31	288	0
SCR	31	288	0	96	192	3
STR	31	288	7
SCL	31	288	7	96	192	4
TAP	33	0	0
TAP	33	96	0
TAP	33	192	0
BRK	33	288	0
HLD	34	0	0	144
TAP	34	192	0
HLD	35	0	2	144
TAP	35	192	2
HLD	36	0	4	144
TAP	36	192	4
HLD	37	0	6	144
TAP	37	192	6
TAP	38	0	2
TAP	38	0	3
TAP	38	96	2
TAP	38	96	3
TAP	38	192	1
TAP	38	192	4
TAP	38	288	1
TAP	38	288	4
TAP	39	0	0
TAP	39	0	5
TAP	39	96	0
TAP	39	96	5
TAP	39	192	6
TAP	39	192	7
TAP	39	288	6
TAP	39	288	7
HLD	40	0	0	288
HLD	40	0	5	288
TAP	41	0	0
TAP	41	0	7
TAP	41	72	0
TAP	41	72	7
BRK	41	144	0
BRK	41	144	7
TAP	42	0	1
TAP	42	96	2
TAP	42	96	3
TAP	42	192	6
TAP	42	288	4
TAP	42	288	5
TAP	43	0	2
TAP	43	96	1
TAP	43	96	3
TAP	43	192	5
TAP	43	288	4
TAP	43	288	6
TAP	44	0	4
TAP	44	0	5
TAP	44	96	2
TAP	44	96	3
TAP	44	192	0
TAP	44	192	1
TAP	44	288	6
TAP	44	288	7
TAP	45	0	4
TAP	45	0	5
TAP	45	96	6
TAP	45	96	7
TAP	45	192	0
TAP	45	192	1
TAP	45	288	2
TAP	45	288	3
STR	46	0	0
SI_	46	0	0	96	48	3
STR	46	192	7
SI_	46	192	7	96	48	4
STR	47	0	2
SI_	47	0	2	96	48	5
STR	47	192	6
SI_	47	192	6	96	48	1
HLD	48	0	0	384
HLD	48	0	7	384
STR	49	96	3
SI_	49	96	3	96	48	0
STR	49	96	4
SI_	49	96	4	96	48	7
TAP	50	0	0
TAP	50	0	1
TAP	50	96	4
TAP	50	96	5
TAP	50	192	6
TAP	50	192	7
TAP	50	288	2
TAP	50	288	3
STR	51	0	2
SI_	51	0	2	96	48	5
STR	51	192	6
SI_	51	192	6	96	48	1
TAP	52	0	2
TAP	52	0	3
TAP	52	96	4
TAP	52	96	5
TAP	52	192	6
TAP	52	192	7
TAP	52	288	0
TAP	52	288	1
STR	53	0	0
SI_	53	0	0	96	48	3
STR	53	192	4
SI_	53	192	4	96	48	7
TAP	54	0	0
TAP	54	0	1
TAP	54	96	0
TAP	54	96	2
TAP	54	192	6
TAP	54	192	7
TAP	54	288	5
TAP	54	288	7
TAP	55	0	1
TAP	55	0	3
TAP	55	96	4
TAP	55	96	5
TAP	55	192	4
TAP	55	192	6
TAP	55	288	2
TAP	55	288	3
HLD	56	0	1	96
HLD	56	0	6	96
HLD	56	192	1	96
HLD	56	192	6	96
BRK	57	0	0
BRK	57	0	7
TAP	58	0	3
TAP	58	0	4
TAP	58	96	2
TAP	58	192	3
TAP	58	192	4
TAP	58	288	5
TAP	59	96	6
TAP	59	96	7
TAP	59	192	0
TAP	59	192	7
TAP	59	288	0
TAP	59	288	1
TAP	60	0	3
TAP	60	0	4
TAP	60	96	5
TAP	60	192	3
TAP	60	192	4
TAP	60	288	2
TAP	61	96	0
TAP	61	96	1
TAP	61	192	0
TAP	61	192	7
TAP	61	288	6
TAP	61	288	7
STR	62	0	6
SCR	62	0	6	96	1056	4

T_REC_TAP	207
T_REC_BRK	7
T_REC_XTP	0
T_REC_HLD	22
T_REC_XHO	0
T_REC_STR	17
T_REC_BST	0
T_REC_XST	0
T_REC_TTP	0
T_REC_THO	0
T_REC_SLD	17
T_REC_ALL	270
T_NUM_TAP	224
T_NUM_BRK	7
T_NUM_HLD	22
T_NUM_SLD	17
T_NUM_ALL	270
T_JUDGE_TAP	231
T_JUDGE_HLD	90
T_JUDGE_SLD	17
T_JUDGE_ALL	338
TTM_EACHPAIRS	81
TTM_SCR_TAP	112000
TTM_SCR_BRK	18200
TTM_SCR_HLD	22000
TTM_SCR_SLD	25500
TTM_SCR_ALL	177700
TTM_SCR_S	171700
TTM_SCR_SS	177000
TTM_RAT_ACV	10039

