VERSION	0.00.00	1.03.00
FES_MODE	0
BPM_DEF	163.000	163.000	163.000	163.000
MET_DEF	4	4
RESOLUTION	384
CLK_DEF	384
COMPATIBLE_CODE	MA2

BPM	0	0	163.000
MET	0	0	4	4

TAP	2	0	1
TAP	2	192	1
TAP	3	0	2
TAP	3	192	2
TAP	4	0	3
TAP	4	192	3
HLD	5	0	4	192
TAP	6	0	6
TAP	6	192	6
TAP	7	0	5
TAP	7	192	5
TAP	8	0	4
TAP	8	192	4
BRK	9	0	3
BRK	9	0	4
TAP	10	0	1
TAP	10	96	1
TAP	10	192	0
TAP	11	0	7
TAP	11	192	7
TAP	12	0	6
TAP	12	96	6
TAP	12	192	7
TAP	13	0	0
TAP	13	192	0
TAP	14	0	1
TAP	14	96	1
TAP	14	192	0
TAP	15	0	6
TAP	15	0	7
TAP	15	192	6
TAP	15	192	7
TAP	16	0	6
TAP	16	96	6
TAP	16	192	7
TAP	17	0	0
TAP	17	0	1
TAP	17	192	0
TAP	17	192	1
STR	18	0	1
SI_	18	0	1	96	288	5
HLD	20	0	4	384
HLD	20	0	5	384
STR	22	0	6
SI_	22	0	6	96	288	2
HLD	24	0	0	384
HLD	24	0	1	384
TAP	26	0	1
TAP	26	192	1
TAP	27	0	2
TAP	27	192	2
HLD	28	0	3	384
TAP	30	0	4
TAP	30	192	4
TAP	31	0	5
TAP	31	192	5
HLD	32	0	6	384
TAP	34	0	0
TAP	34	192	1
TAP	35	0	2
TAP	35	0	3
TAP	35	192	3
TAP	35	192	4
TAP	36	0	7
TAP	36	192	6
TAP	37	0	4
TAP	37	0	5
TAP	37	192	3
TAP	37	192	4
TAP	38	0	0
TAP	38	192	0
TAP	38	192	1
TAP	39	0	7
TAP	39	192	6
TAP	39	192	7
HLD	40	0	0	384
HLD	40	0	7	384
TAP	42	0	0
TAP	42	96	0
TAP	42	192	0
TAP	43	0	2
TAP	43	96	2
TAP	43	192	2
TAP	44	0	4
TAP	44	96	4
TAP	44	192	4
TAP	45	0	6
TAP	45	96	6
TAP	45	192	6
STR	46	0	0
SI_	46	0	0	96	288	4
HLD	48	0	6	384
TAP	50	0	7
TAP	50	96	7
TAP	50	192	7
TAP	51	0	5
TAP	51	96	5
TAP	51	192	5
TAP	52	0	3
TAP	52	96	3
TAP	52	192	3
TAP	53	0	1
TAP	53	96	1
TAP	53	192	1
STR	54	0	7
SI_	54	0	7	96	288	3
TAP	56	0	2
TAP	56	0	5
TAP	56	192	1
TAP	56	192	6
BRK	57	0	0
BRK	57	0	7
TAP	58	0	1
TAP	58	192	1
TAP	59	0	0
TAP	59	192	0
TAP	60	0	7
TAP	60	192	7
TAP	61	0	6
TAP	61	192	6
BRK	62	0	0
BRK	62	0	7

T_REC_TAP	98
T_REC_BRK	6
T_REC_XTP	0
T_REC_HLD	10
T_REC_XHO	0
T_REC_STR	4
T_REC_BST	0
T_REC_XST	0
T_REC_TTP	0
T_REC_THO	0
T_REC_SLD	4
T_REC_ALL	122
T_NUM_TAP	102
T_NUM_BRK	6
T_NUM_HLD	10
T_NUM_SLD	4
T_NUM_ALL	122
T_JUDGE_TAP	108
T_JUDGE_HLD	76
T_JUDGE_SLD	4
T_JUDGE_ALL	188
TTM_EACHPAIRS	18
TTM_SCR_TAP	51000
TTM_SCR_BRK	15600
TTM_SCR_HLD	10000
TTM_SCR_SLD	6000
TTM_SCR_ALL	82600
TTM_SCR_S	79550
TTM_SCR_SS	82000
TTM_RAT_ACV	10073

