VERSION	0.00.00	1.03.00
FES_MODE	0
BPM_DEF	155.000	155.000	155.000	155.000
MET_DEF	4	4
RESOLUTION	384
CLK_DEF	384
COMPATIBLE_CODE	MA2

BPM	0	0	155.000
MET	0	0	4	4

STR	1	0	0
SI_	1	0	0	96	48	4
STR	1	48	4
SCR	1	48	4	96	144	3
STR	2	0	7
SI_	2	0	7	96	48	3
STR	2	48	3
SCL	2	48	3	96	144	4
STR	3	0	0
SI_	3	0	0	96	48	4
STR	3	48	4
SCR	3	48	4	96	144	3
STR	4	0	7
SI_	4	0	7	96	48	3
STR	4	48	3
SCL	4	48	3	96	144	4
STR	5	0	0
SI_	5	0	0	96	48	4
STR	5	48	4
SCR	5	48	4	96	144	3
STR	5	96	0
SUL	5	96	0	96	96	3
STR	6	0	7
SI_	6	0	7	96	48	3
STR	6	48	3
SCL	6	48	3	96	144	4
STR	6	96	7
SUR	6	96	7	96	96	4
STR	7	0	0
SI_	7	0	0	96	48	4
STR	7	48	4
SCR	7	48	4	96	144	3
STR	7	96	0
SUL	7	96	0	96	96	3
STR	8	0	7
SI_	8	0	7	96	48	3
STR	8	48	3
SCL	8	48	3	96	144	4
STR	8	96	7
SUR	8	96	7	96	96	4
STR	9	0	1
SI_	9	0	1	96	48	4
STR	9	48	5
SI_	9	48	5	96	48	2
STR	9	96	1
SUL	9	96	1	96	144	7
STR	10	0	6
SI_	10	0	6	96	48	3
STR	10	48	2
SI_	10	48	2	96	48	5
STR	10	96	6
SUR	10	96	6	96	144	0
STR	11	0	1
SI_	11	0	1	96	48	4
STR	11	48	5
SI_	11	48	5	96	48	2
STR	11	96	1
SUL	11	96	1	96	144	7
STR	12	0	6
SI_	12	0	6	96	48	3
STR	12	48	2
SI_	12	48	2	96	48	5
STR	12	96	6
SUR	12	96	6	96	144	0
STR	13	0	1
SI_	13	0	1	96	48	6
STR	13	48	5
SI_	13	48	5	96	48	0
STR	13	96	1
SUR	13	96	1	96	144	3
STR	14	0	6
SI_	14	0	6	96	48	1
STR	14	48	2
SI_	14	48	2	96	48	7
STR	14	96	6
SUL	14	96	6	96	144	4
STR	15	0	1
SI_	15	0	1	96	48	6
STR	15	48	5
SI_	15	48	5	96	48	0
STR	15	96	1
SUR	15	96	1	96	144	3
BRK	16	0	6
BRK	16	24	7
BRK	16	48	6
BRK	16	72	7
BRK	16	144	2
BRK	16	168	3
BRK	16	192	2
BRK	16	216	3
STR	17	0	1
SUL	17	0	1	96	48	3
STR	17	0	7
SUL	17	0	7	96	48	3
STR	17	192	0
SUR	17	192	0	96	48	4
STR	17	192	6
SUR	17	192	6	96	48	4
STR	18	0	1
SUL	18	0	1	96	192	0
STR	18	0	7
SCL	18	0	7	96	192	0
STR	19	0	0
SUR	19	0	0	96	48	4
STR	19	0	6
SUR	19	0	6	96	48	4
STR	19	192	1
SUL	19	192	1	96	48	3
STR	19	192	7
SUL	19	192	7	96	48	3
STR	20	0	0
SCR	20	0	0	96	192	7
STR	20	0	6
SUR	20	0	6	96	192	7
STR	21	0	1
SCR	21	0	1	96	48	4
STR	21	0	7
SCL	21	0	7	96	48	4
STR	21	96	1
SUL	21	96	1	96	144	4
STR	21	96	7
SUR	21	96	7	96	144	4
STR	22	0	0
SCR	22	0	0	96	48	3
STR	22	0	6
SCL	22	0	6	96	48	3
STR	22	96	0
SUL	22	96	0	96	144	3
STR	22	96	6
SUR	22	96	6	96	144	3
STR	23	0	2
SV_	23	0	2	96	48	7
STR	23	0	7
SUL	23	0	7	96	48	2
STR	23	192	0
SUR	23	192	0	96	48	5
STR	23	192	5
SV_	23	192	5	96	48	0
STR	24	0	6
SUL	24	0	6	96	144	1
STR	24	0	7
SCL	24	0	7	96	144	1
STR	25	0	2
SUR	25	0	2	96	48	0
STR	25	0	4
SUR	25	0	4	96	48	0
STR	25	192	3
SUL	25	192	3	96	48	7
STR	25	192	5
SUL	25	192	5	96	48	7
STR	26	0	2
SUR	26	0	2	96	192	3
STR	26	0	4
SCR	26	0	4	96	192	3
STR	27	0	3
SUL	27	0	3	96	48	7
STR	27	0	5
SUL	27	0	5	96	48	7
STR	27	192	2
SUR	27	192	2	96	48	0
STR	27	192	4
SUR	27	192	4	96	48	0
STR	28	0	3
SCL	28	0	3	96	192	4
STR	28	0	5
SUL	28	0	5	96	192	4
STR	29	0	2
SCL	29	0	2	96	48	7
STR	29	0	4
SCR	29	0	4	96	48	7
STR	29	96	2
SUR	29	96	2	96	144	7
STR	29	96	4
SUL	29	96	4	96	144	7
STR	30	0	3
SCL	30	0	3	96	48	0
STR	30	0	5
SCR	30	0	5	96	48	0
STR	30	96	3
SUR	30	96	3	96	144	0
STR	30	96	5
SUL	30	96	5	96	144	0
STR	31	0	3
SUL	31	0	3	96	48	6
STR	31	0	6
SV_	31	0	6	96	48	3
STR	31	192	1
SV_	31	192	1	96	48	4
STR	31	192	4
SUR	31	192	4	96	48	1
STR	32	0	2
SUL	32	0	2	96	144	5
STR	32	0	3
SCL	32	0	3	96	144	5
STR	33	0	0
SUR	33	0	0	96	48	4
STR	33	96	7
SCR	33	96	7	96	48	2
STR	33	192	6
SUR	33	192	6	96	48	2
STR	33	288	5
SCR	33	288	5	96	48	0
STR	34	0	4
SUR	34	0	4	96	48	0
STR	34	96	3
SCR	34	96	3	96	48	6
STR	34	192	2
SUR	34	192	2	96	48	6
STR	34	288	1
SCR	34	288	1	96	48	4
STR	35	0	0
SUR	35	0	0	96	48	4
STR	35	96	7
SCR	35	96	7	96	48	2
STR	35	192	6
SUR	35	192	6	96	48	2
STR	35	288	5
SCR	35	288	5	96	48	0
STR	36	0	4
SUR	36	0	4	96	48	0
STR	36	96	3
SCL	36	96	3	96	144	4
STR	37	0	7
SUL	37	0	7	96	48	3
STR	37	96	0
SCL	37	96	0	96	48	5
STR	37	192	1
SUL	37	192	1	96	48	5
STR	37	288	2
SCL	37	288	2	96	48	7
STR	38	0	3
SUL	38	0	3	96	48	7
STR	38	96	4
SCL	38	96	4	96	48	1
STR	38	192	5
SUL	38	192	5	96	48	1
STR	38	288	6
SCL	38	288	6	96	48	3
STR	39	0	7
SUL	39	0	7	96	48	3
STR	39	96	0
SCR	39	96	0	96	144	7
BRK	40	0	5
BRK	40	24	4
BRK	40	48	5
BRK	40	72	4
BRK	40	144	2
BRK	40	168	3
BRK	40	192	2
BRK	40	216	3
BRK	40	288	1
BRK	40	288	6
STR	42	0	1
SCR	42	0	1	96	48	3
STR	42	0	6
SCL	42	0	6	96	48	4
STR	42	96	1
SCL	42	96	1	96	48	7
STR	42	192	1
SCR	42	192	1	96	48	3
STR	42	192	4
SCR	42	192	4	96	48	6
STR	42	288	1
SCL	42	288	1	96	48	7
STR	43	0	1
SCR	43	0	1	96	48	3
STR	43	0	6
SCL	43	0	6	96	48	4
STR	43	96	1
SCL	43	96	1	96	48	7
STR	43	192	1
SCR	43	192	1	96	48	3
STR	43	192	4
SCR	43	192	4	96	48	6
STR	44	0	1
SCR	44	0	1	96	48	3
STR	44	0	6
SCL	44	0	6	96	48	4
STR	44	96	6
SCR	44	96	6	96	48	0
STR	44	192	3
SCL	44	192	3	96	48	1
STR	44	192	6
SCL	44	192	6	96	48	4
STR	44	288	6
SCR	44	288	6	96	48	0
STR	45	0	1
SCR	45	0	1	96	48	3
STR	45	0	6
SCL	45	0	6	96	48	4
STR	45	96	6
SCR	45	96	6	96	48	0
STR	45	192	3
SCL	45	192	3	96	48	1
STR	45	192	6
SCL	45	192	6	96	48	4
STR	46	0	1
SI_	46	0	1	96	48	3
STR	46	0	6
SI_	46	0	6	96	48	4
STR	46	96	1
SI_	46	96	1	96	48	7
STR	46	192	1
SI_	46	192	1	96	48	3
STR	46	192	4
SI_	46	192	4	96	48	6
STR	47	0	1
SI_	47	0	1	96	48	3
STR	47	0	6
SI_	47	0	6	96	48	4
STR	47	96	6
SI_	47	96	6	96	48	0
STR	47	192	3
SI_	47	192	3	96	48	1
STR	47	192	6
SI_	47	192	6	96	48	4
STR	48	0	0
SI_	48	0	0	96	48	4
STR	48	0	5
SUR	48	0	5	96	48	1
STR	48	192	2
SUL	48	192	2	96	48	6
STR	48	192	7
SI_	48	192	7	96	48	3
STR	49	0	1
SV_	49	0	1	96	144	7
STR	49	0	5
SV_	49	0	5	96	144	3
STR	50	0	0
SCR	50	0	0	96	48	2
STR	50	0	5
SCL	50	0	5	96	48	3
STR	50	96	0
SCL	50	96	0	96	48	6
STR	50	192	0
SCR	50	192	0	96	48	2
STR	50	192	3
SCR	50	192	3	96	48	5
STR	50	288	0
SCL	50	288	0	96	48	6
STR	51	0	0
SCR	51	0	0	96	48	2
STR	51	0	5
SCL	51	0	5	96	48	3
STR	51	96	0
SCL	51	96	0	96	48	6
STR	51	192	0
SCR	51	192	0	96	48	2
STR	51	192	3
SCR	51	192	3	96	48	5
STR	52	0	2
SCR	52	0	2	96	48	4
STR	52	0	7
SCL	52	0	7	96	48	5
STR	52	96	7
SCR	52	96	7	96	48	1
STR	52	192	4
SCL	52	192	4	96	48	2
STR	52	192	7
SCL	52	192	7	96	48	5
STR	52	288	7
SCR	52	288	7	96	48	1
STR	53	0	2
SCR	53	0	2	96	48	4
STR	53	0	7
SCL	53	0	7	96	48	5
STR	53	96	7
SCR	53	96	7	96	48	1
STR	53	192	4
SCL	53	192	4	96	48	2
STR	53	192	7
SCL	53	192	7	96	48	5
STR	54	0	0
SI_	54	0	0	96	48	2
STR	54	0	5
SI_	54	0	5	96	48	3
STR	54	96	0
SI_	54	96	0	96	48	6
STR	54	192	0
SI_	54	192	0	96	48	2
STR	54	192	3
SI_	54	192	3	96	48	5
STR	55	0	2
SI_	55	0	2	96	48	4
STR	55	0	7
SI_	55	0	7	96	48	5
STR	55	96	7
SI_	55	96	7	96	48	1
STR	55	192	4
SI_	55	192	4	96	48	2
STR	55	192	7
SI_	55	192	7	96	48	5
STR	56	0	1
SUR	56	0	1	96	48	5
STR	56	0	4
SI_	56	0	4	96	48	0
STR	56	192	3
SI_	56	192	3	96	48	7
STR	56	192	6
SUL	56	192	6	96	48	2
STR	57	0	5
SI_	57	0	5	96	48	0
STR	57	96	2
SI_	57	96	2	96	48	7
STR	57	192	4
SI_	57	192	4	96	48	0
STR	58	0	1
SI_	58	0	1	96	48	4
STR	58	48	5
SI_	58	48	5	96	48	2
STR	58	96	1
SI_	58	96	1	96	48	6
STR	58	144	5
SI_	58	144	5	96	48	0
STR	58	192	1
SCR	58	192	1	96	48	4
STR	59	0	6
SI_	59	0	6	96	48	3
STR	59	48	2
SI_	59	48	2	96	48	5
STR	59	96	6
SI_	59	96	6	96	48	1
STR	59	144	2
SI_	59	144	2	96	48	7
STR	59	192	6
SCL	59	192	6	96	48	3
STR	60	0	1
SI_	60	0	1	96	48	6
STR	60	48	5
SI_	60	48	5	96	48	0
STR	60	96	1
SI_	60	96	1	96	48	4
STR	60	144	5
SI_	60	144	5	96	48	2
STR	60	192	1
SCL	60	192	1	96	48	6
STR	61	0	6
SI_	61	0	6	96	48	1
STR	61	48	2
SI_	61	48	2	96	48	7
STR	61	96	6
SI_	61	96	6	96	48	3
STR	61	144	2
SI_	61	144	2	96	48	5
STR	61	192	6
SCR	61	192	6	96	48	1
STR	62	0	1
SI_	62	0	1	96	48	4
STR	62	48	5
SI_	62	48	5	96	48	2
STR	62	96	1
SI_	62	96	1	96	48	6
STR	62	144	5
SI_	62	144	5	96	48	0
STR	62	192	1
SCR	62	192	1	96	48	4
STR	63	0	6
SI_	63	0	6	96	48	3
STR	63	48	2
SI_	63	48	2	96	48	5
STR	63	96	6
SI_	63	96	6	96	48	1
STR	63	144	2
SI_	63	144	2	96	48	7
STR	63	192	6
SCL	63	192	6	96	48	3
STR	64	0	0
SI_	64	0	0	96	48	3
STR	64	48	4
SI_	64	48	4	96	48	1
STR	64	96	0
SI_	64	96	0	96	48	5
STR	64	144	4
SI_	64	144	4	96	48	7
STR	64	192	0
SCR	64	192	0	96	48	3
BRK	65	0	1
BRK	65	24	0
BRK	65	48	1
BRK	65	72	0
BRK	65	144	5
BRK	65	168	4
BRK	65	192	5
BRK	65	216	4

T_REC_TAP	0
T_REC_BRK	26
T_REC_XTP	0
T_REC_HLD	0
T_REC_XHO	0
T_REC_STR	229
T_REC_BST	0
T_REC_XST	0
T_REC_TTP	0
T_REC_THO	0
T_REC_SLD	229
T_REC_ALL	484
T_NUM_TAP	229
T_NUM_BRK	26
T_NUM_HLD	0
T_NUM_SLD	229
T_NUM_ALL	484
T_JUDGE_TAP	255
T_JUDGE_HLD	0
T_JUDGE_SLD	229
T_JUDGE_ALL	484
TTM_EACHPAIRS	56
TTM_SCR_TAP	114500
TTM_SCR_BRK	67600
TTM_SCR_HLD	0
TTM_SCR_SLD	343500
TTM_SCR_ALL	525600
TTM_SCR_S	507350
TTM_SCR_SS	523000
TTM_RAT_ACV	10049

