VERSION	0.00.00	1.03.00
FES_MODE	0
BPM_DEF	155.000	155.000	155.000	155.000
MET_DEF	4	4
RESOLUTION	384
CLK_DEF	384
COMPATIBLE_CODE	MA2

BPM	0	0	155.000
MET	0	0	4	4

TAP	1	0	0
TAP	1	0	7
TAP	1	48	0
TAP	1	48	7
TAP	1	192	0
TAP	1	240	7
TAP	1	288	1
TAP	1	288	6
TAP	2	0	3
TAP	2	0	4
TAP	2	48	2
TAP	2	72	3
TAP	2	120	5
TAP	2	144	4
TAP	2	192	6
TAP	2	240	7
TAP	2	288	0
TAP	2	336	1
TAP	3	0	2
TAP	3	0	3
TAP	3	48	2
TAP	3	48	3
TAP	3	192	2
TAP	3	240	3
TAP	3	288	1
TAP	3	288	4
TAP	4	0	0
TAP	4	0	7
TAP	4	48	6
TAP	4	73	7
TAP	4	120	1
TAP	4	144	0
TAP	4	192	2
TAP	4	240	3
TAP	4	288	4
TAP	4	336	5
TAP	5	0	6
TAP	5	0	7
TAP	5	48	6
TAP	5	48	7
TAP	5	192	6
TAP	5	240	7
TAP	5	288	0
TAP	5	288	5
TAP	6	0	3
TAP	6	0	4
TAP	6	48	1
TAP	6	72	3
TAP	6	120	6
TAP	6	144	4
TAP	6	192	5
TAP	6	240	7
TAP	6	288	0
TAP	6	336	2
TAP	7	0	3
TAP	7	0	4
TAP	7	48	3
TAP	7	48	4
TAP	7	192	3
TAP	7	240	4
TAP	7	288	2
TAP	7	288	5
TAP	8	0	1
TAP	8	0	6
TAP	8	48	5
TAP	8	72	0
TAP	8	120	2
TAP	8	144	7
TAP	8	192	1
TAP	8	216	6
TAP	8	240	1
TAP	8	264	6
TAP	8	288	1
TAP	8	312	6
TAP	8	336	1
TAP	8	360	6
TAP	9	0	2
TAP	9	48	3
TAP	9	96	2
TAP	9	144	1
TAP	9	144	4
TAP	9	192	5
TAP	9	240	4
TAP	9	288	5
TAP	9	336	3
TAP	9	336	6
TAP	10	0	5
TAP	10	48	6
TAP	10	96	7
TAP	10	144	0
TAP	10	144	1
TAP	10	192	2
TAP	10	240	1
TAP	10	288	0
TAP	10	336	6
TAP	10	336	7
TAP	11	0	5
TAP	11	48	4
TAP	11	96	5
TAP	11	144	3
TAP	11	144	6
TAP	11	192	2
TAP	11	240	3
TAP	11	288	2
TAP	11	336	1
TAP	11	336	4
TAP	12	0	2
TAP	12	48	3
TAP	12	96	4
TAP	12	144	2
TAP	12	144	5
STR	12	192	1
SI_	12	192	1	96	48	5
STR	12	240	7
SI_	12	240	7	96	48	3
TAP	13	0	2
TAP	13	48	5
TAP	13	72	4
TAP	13	120	2
TAP	13	144	3
TAP	13	192	1
TAP	13	240	0
TAP	13	288	7
TAP	13	336	6
TAP	14	0	5
TAP	14	48	2
TAP	14	72	3
TAP	14	120	5
TAP	14	144	4
TAP	14	192	6
TAP	14	240	7
TAP	14	288	0
TAP	14	336	1
TAP	15	0	0
TAP	15	0	7
TAP	15	48	1
TAP	15	72	0
TAP	15	120	6
TAP	15	144	7
TAP	15	192	5
TAP	15	240	4
TAP	15	288	3
TAP	15	336	2
TAP	16	0	1
TAP	16	24	0
TAP	16	48	1
TAP	16	72	0
TAP	16	144	6
TAP	16	168	7
TAP	16	192	6
TAP	16	216	7
BRK	16	288	0
BRK	16	288	7
STR	17	0	2
SV_	17	0	2	96	48	3
TAP	17	144	4
STR	17	192	4
SUR	17	192	4	96	48	1
TAP	17	336	0
STR	18	0	0
SCL	18	0	0	96	72	3
TAP	18	240	0
TAP	18	288	7
TAP	18	336	6
STR	19	0	5
SV_	19	0	5	96	48	4
TAP	19	144	3
STR	19	192	3
SUL	19	192	3	96	48	6
TAP	19	336	7
STR	20	0	7
SCR	20	0	7	96	72	4
TAP	20	240	6
TAP	20	288	7
TAP	20	336	0
STR	21	0	1
SCL	21	0	1	96	96	6
HLD	21	96	1	96
TAP	21	240	5
TAP	21	288	4
TAP	21	336	3
STR	22	0	2
SCR	22	0	2	96	96	5
HLD	22	96	2	96
TAP	22	240	6
TAP	22	288	7
TAP	22	336	0
STR	23	0	1
SV_	23	0	1	96	48	2
TAP	23	144	0
STR	23	192	0
SUL	23	192	0	96	48	3
TAP	23	336	7
STR	24	0	7
SCL	24	0	7	96	96	1
TAP	24	240	0
TAP	24	288	7
TAP	24	336	6
STR	25	0	5
SV_	25	0	5	96	48	4
TAP	25	144	3
STR	25	192	3
SUL	25	192	3	96	48	6
TAP	25	336	7
STR	26	0	7
SCR	26	0	7	96	96	5
TAP	26	240	7
TAP	26	288	0
TAP	26	336	1
STR	27	0	2
SV_	27	0	2	96	48	3
TAP	27	144	4
STR	27	192	4
SUR	27	192	4	96	48	1
TAP	27	336	0
STR	28	0	0
SCL	28	0	0	96	96	2
TAP	28	240	1
TAP	28	288	0
TAP	28	336	7
STR	29	0	6
SCR	29	0	6	96	96	1
HLD	29	96	6	96
TAP	29	240	2
TAP	29	288	3
TAP	29	336	4
STR	30	0	5
SCL	30	0	5	96	96	2
HLD	30	96	5	96
TAP	30	240	1
TAP	30	288	0
TAP	30	336	7
STR	31	0	6
SV_	31	0	6	96	48	5
TAP	31	144	7
STR	31	192	7
SUR	31	192	7	96	48	4
TAP	31	336	0
STR	32	0	0
SCR	32	0	0	96	96	7
BRK	32	240	0
BRK	32	288	7
STR	33	0	1
SCR	33	0	1	96	96	4
TAP	33	48	1
STR	33	96	4
SCR	33	96	4	96	96	7
TAP	33	144	4
STR	33	192	7
SI_	33	192	7	96	48	3
TAP	33	240	7
STR	34	0	6
SCL	34	0	6	96	96	3
TAP	34	48	6
STR	34	96	3
SCL	34	96	3	96	96	0
TAP	34	144	3
STR	34	192	0
SI_	34	192	0	96	48	4
TAP	34	240	0
STR	35	0	1
SCL	35	0	1	96	96	6
TAP	35	48	1
STR	35	96	6
SI_	35	96	6	96	96	2
TAP	35	144	6
STR	35	192	2
SCR	35	192	2	96	96	5
TAP	35	240	2
STR	35	288	5
SUR	35	288	5	96	96	2
TAP	35	336	5
STR	36	0	2
SUL	36	0	2	96	72	5
TAP	36	48	2
TAP	36	192	4
TAP	36	216	5
TAP	36	240	4
TAP	36	288	3
TAP	36	312	2
TAP	36	336	3
STR	37	0	1
SCR	37	0	1	96	96	5
TAP	37	48	1
STR	37	96	5
SI_	37	96	5	96	96	1
TAP	37	144	5
STR	37	192	1
SCL	37	192	1	96	48	5
TAP	37	240	1
STR	38	0	6
SCL	38	0	6	96	96	2
TAP	38	48	6
STR	38	96	2
SI_	38	96	2	96	96	6
TAP	38	144	2
STR	38	192	6
SCR	38	192	6	96	48	2
TAP	38	240	6
STR	39	0	1
SI_	39	0	1	96	48	5
TAP	39	48	1
STR	39	96	6
SI_	39	96	6	96	48	2
TAP	39	144	6
STR	39	192	4
SI_	39	192	4	96	48	0
TAP	39	240	4
BRK	39	288	7
TAP	40	0	2
TAP	40	24	3
TAP	40	48	2
TAP	40	72	3
TAP	40	144	5
TAP	40	168	4
TAP	40	192	5
TAP	40	216	4
TAP	40	288	1
TAP	40	288	6
TAP	41	0	0
TAP	41	24	7
TAP	41	48	0
TAP	41	72	7
TAP	41	96	0
TAP	41	144	6
TAP	41	168	4
TAP	41	216	1
TAP	41	240	3
BRK	41	288	0
BRK	41	288	7
STR	42	0	1
SI_	42	0	1	96	48	4
TAP	42	48	0
TAP	42	96	1
TAP	42	144	5
TAP	42	168	3
TAP	42	216	2
TAP	42	240	4
TAP	42	288	1
TAP	42	288	3
STR	43	0	6
SI_	43	0	6	96	48	3
TAP	43	48	7
TAP	43	96	6
TAP	43	144	2
TAP	43	168	4
TAP	43	216	5
TAP	43	240	3
TAP	43	288	4
TAP	43	288	6
STR	44	0	2
SI_	44	0	2	96	48	7
TAP	44	48	3
TAP	44	96	2
TAP	44	144	6
TAP	44	168	0
TAP	44	216	1
TAP	44	240	7
TAP	44	288	2
TAP	44	288	6
STR	45	0	5
SI_	45	0	5	96	48	0
TAP	45	48	4
TAP	45	96	5
TAP	45	144	1
TAP	45	168	7
TAP	45	216	6
TAP	45	240	0
TAP	45	288	1
TAP	45	288	5
STR	46	0	7
SI_	46	0	7	96	48	3
TAP	46	48	0
TAP	46	48	6
TAP	46	96	7
TAP	46	144	2
TAP	46	168	4
TAP	46	216	5
TAP	46	240	3
TAP	46	288	2
TAP	46	288	6
STR	47	0	0
SI_	47	0	0	96	48	4
TAP	47	48	1
TAP	47	48	7
TAP	47	96	0
TAP	47	144	5
TAP	47	168	3
TAP	47	216	2
TAP	47	240	4
TAP	47	288	1
TAP	47	288	5
TAP	48	0	3
TAP	48	0	6
TAP	48	48	5
TAP	48	72	4
TAP	48	96	5
STR	48	144	1
SI_	48	144	1	96	48	5
TAP	48	240	1
STR	48	240	7
SI_	48	240	7	96	48	3
BRK	48	336	0
BRK	48	336	7
TAP	49	48	1
TAP	49	48	2
TAP	49	96	5
TAP	49	96	6
TAP	49	192	3
TAP	49	192	4
TAP	49	240	2
TAP	49	264	5
TAP	49	288	1
TAP	49	312	6
TAP	49	336	0
TAP	49	360	7
STR	50	0	1
SI_	50	0	1	96	48	5
TAP	50	48	3
TAP	50	96	1
TAP	50	144	6
TAP	50	168	7
TAP	50	216	1
TAP	50	240	0
TAP	50	288	2
TAP	50	288	7
STR	51	0	6
SI_	51	0	6	96	48	2
TAP	51	48	4
TAP	51	96	6
TAP	51	144	1
TAP	51	168	0
TAP	51	216	6
TAP	51	240	7
TAP	51	288	0
TAP	51	288	5
STR	52	0	2
SI_	52	0	2	96	48	6
TAP	52	48	4
TAP	52	96	2
TAP	52	144	5
TAP	52	168	4
TAP	52	216	2
TAP	52	240	3
TAP	52	288	1
TAP	52	288	4
STR	53	0	5
SI_	53	0	5	96	48	1
TAP	53	48	3
TAP	53	96	5
TAP	53	144	2
TAP	53	168	3
TAP	53	216	5
TAP	53	240	4
TAP	53	288	3
TAP	53	288	6
STR	54	0	4
SI_	54	0	4	96	48	0
TAP	54	48	3
TAP	54	48	5
TAP	54	96	4
TAP	54	144	1
TAP	54	168	7
TAP	54	216	6
TAP	54	240	0
TAP	54	288	1
TAP	54	288	5
STR	55	0	3
SI_	55	0	3	96	48	7
TAP	55	48	2
TAP	55	48	4
TAP	55	96	3
TAP	55	144	6
TAP	55	168	0
TAP	55	216	1
TAP	55	240	7
TAP	55	288	2
TAP	55	288	6
TAP	56	0	1
TAP	56	0	6
TAP	56	48	0
TAP	56	72	7
TAP	56	96	0
TAP	56	144	2
TAP	56	144	5
TAP	56	240	3
TAP	56	240	4
TAP	56	288	1
TAP	56	288	6
HLD	57	0	2	72
TAP	57	0	3
TAP	57	72	0
TAP	57	144	4
HLD	57	144	5	72
TAP	57	216	7
BRK	57	288	2
BRK	57	336	6
BRK	58	0	0
TAP	58	48	1
TAP	58	72	2
TAP	58	120	2
TAP	58	144	3
TAP	58	192	3
TAP	58	216	4
TAP	58	240	2
TAP	58	264	5
TAP	58	288	3
TAP	58	312	4
TAP	58	336	1
TAP	59	0	0
TAP	59	0	7
TAP	59	48	6
TAP	59	72	5
TAP	59	120	5
TAP	59	144	4
TAP	59	192	4
TAP	59	216	3
TAP	59	240	5
TAP	59	264	2
TAP	59	288	4
TAP	59	312	3
TAP	59	336	6
TAP	60	0	0
TAP	60	0	7
TAP	60	48	1
TAP	60	72	2
TAP	60	120	2
TAP	60	144	3
TAP	60	192	3
TAP	60	216	4
TAP	60	240	1
TAP	60	264	6
TAP	60	288	2
TAP	60	312	5
TAP	60	336	0
TAP	61	0	0
TAP	61	0	7
TAP	61	48	6
TAP	61	72	5
TAP	61	120	5
TAP	61	144	4
TAP	61	192	4
TAP	61	216	3
TAP	61	240	6
TAP	61	264	1
TAP	61	288	5
TAP	61	312	2
TAP	61	336	7
TAP	62	0	3
TAP	62	0	5
TAP	62	48	4
TAP	62	72	2
TAP	62	120	4
TAP	62	144	6
TAP	62	192	3
TAP	62	216	5
TAP	62	240	2
TAP	62	264	6
TAP	62	288	1
TAP	62	312	7
TAP	62	336	0
TAP	63	0	2
TAP	63	0	4
TAP	63	48	3
TAP	63	72	5
TAP	63	120	3
TAP	63	144	1
TAP	63	192	4
TAP	63	216	2
TAP	63	240	5
TAP	63	264	1
TAP	63	288	6
TAP	63	312	0
TAP	63	336	7
TAP	64	0	2
TAP	64	0	5
TAP	64	48	3
TAP	64	72	1
TAP	64	120	4
TAP	64	144	6
TAP	64	192	0
TAP	64	216	7
TAP	64	240	1
TAP	64	264	6
TAP	64	288	2
TAP	64	312	5
TAP	64	336	3
TAP	64	336	4
TAP	65	0	2
TAP	65	24	3
TAP	65	48	2
TAP	65	72	1
TAP	65	72	4
TAP	65	144	5
TAP	65	168	4
TAP	65	192	5
TAP	65	216	3
TAP	65	216	6

T_REC_TAP	464
T_REC_BRK	12
T_REC_XTP	0
T_REC_HLD	6
T_REC_XHO	0
T_REC_STR	58
T_REC_BST	0
T_REC_XST	0
T_REC_TTP	0
T_REC_THO	0
T_REC_SLD	58
T_REC_ALL	598
T_NUM_TAP	522
T_NUM_BRK	12
T_NUM_HLD	6
T_NUM_SLD	58
T_NUM_ALL	598
T_JUDGE_TAP	534
T_JUDGE_HLD	12
T_JUDGE_SLD	58
T_JUDGE_ALL	604
TTM_EACHPAIRS	64
TTM_SCR_TAP	261000
TTM_SCR_BRK	31200
TTM_SCR_HLD	6000
TTM_SCR_SLD	87000
TTM_SCR_ALL	385200
TTM_SCR_S	372500
TTM_SCR_SS	384000
TTM_RAT_ACV	10031

