VERSION	0.00.00	1.03.00
FES_MODE	0
BPM_DEF	155.000	155.000	155.000	155.000
MET_DEF	4	4
RESOLUTION	384
CLK_DEF	384
COMPATIBLE_CODE	MA2

BPM	0	0	155.000
MET	0	0	4	4

TAP	1	0	7
STR	1	48	7
SI_	1	48	7	96	48	3
TAP	1	288	2
TAP	1	288	4
TAP	2	0	0
STR	2	48	0
SI_	2	48	0	96	48	4
TAP	2	288	3
TAP	2	288	5
TAP	3	0	6
STR	3	48	6
SI_	3	48	6	96	48	2
TAP	3	288	1
TAP	3	288	3
TAP	4	0	1
STR	4	48	1
SI_	4	48	1	96	48	5
TAP	4	288	4
TAP	4	288	6
TAP	5	0	6
TAP	5	0	7
STR	5	48	6
SI_	5	48	6	96	48	3
STR	5	48	7
SI_	5	48	7	96	48	3
TAP	5	288	2
TAP	5	288	4
TAP	6	0	0
TAP	6	0	1
STR	6	48	0
SI_	6	48	0	96	48	4
STR	6	48	1
SI_	6	48	1	96	48	4
TAP	6	288	3
TAP	6	288	5
TAP	7	0	6
TAP	7	0	7
STR	7	48	6
SI_	7	48	6	96	48	3
STR	7	48	7
SI_	7	48	7	96	48	3
TAP	7	288	2
TAP	7	288	4
TAP	8	0	5
TAP	8	48	4
TAP	8	144	2
TAP	8	192	3
BRK	8	288	1
BRK	8	288	6
TAP	9	0	5
TAP	9	48	5
TAP	9	144	2
TAP	9	192	3
TAP	9	240	2
TAP	9	336	5
TAP	10	0	4
TAP	10	48	5
TAP	10	144	1
TAP	10	192	3
TAP	10	240	2
TAP	10	336	6
TAP	11	0	4
TAP	11	48	5
TAP	11	144	1
TAP	11	192	4
TAP	11	240	2
TAP	11	336	6
TAP	12	0	3
TAP	12	48	5
TAP	12	144	2
TAP	12	144	3
TAP	12	240	1
TAP	12	240	4
TAP	12	336	2
TAP	13	0	3
TAP	13	48	2
TAP	13	144	6
TAP	13	192	4
TAP	13	240	5
TAP	13	336	1
TAP	14	0	3
TAP	14	48	2
TAP	14	144	6
TAP	14	192	3
TAP	14	240	5
TAP	14	336	1
TAP	15	0	4
TAP	15	48	2
TAP	15	144	5
TAP	15	192	2
TAP	15	240	4
TAP	15	288	3
TAP	15	288	4
TAP	16	0	2
TAP	16	0	3
TAP	16	48	2
TAP	16	48	3
TAP	16	144	4
TAP	16	144	5
TAP	16	192	4
TAP	16	192	5
TAP	17	0	1
TAP	17	96	2
TAP	17	96	3
HLD	17	192	6	72
HLD	17	264	5	72
TAP	17	336	4
TAP	18	0	4
TAP	18	96	3
TAP	18	96	5
TAP	18	192	2
TAP	18	240	4
TAP	18	288	1
TAP	18	288	3
TAP	19	0	6
TAP	19	96	4
TAP	19	96	5
HLD	19	192	1	72
HLD	19	264	2	72
TAP	19	336	3
TAP	20	0	3
TAP	20	96	2
TAP	20	96	4
TAP	20	192	5
TAP	20	240	3
TAP	20	288	4
TAP	20	288	6
HLD	21	0	1	96
TAP	21	96	2
TAP	21	192	5
TAP	21	240	4
TAP	21	288	3
TAP	21	288	6
HLD	22	0	6	96
TAP	22	96	5
TAP	22	192	2
TAP	22	240	3
TAP	22	288	1
TAP	22	288	4
HLD	23	0	6	144
TAP	23	144	7
HLD	23	192	7	144
TAP	23	336	0
STR	24	0	0
SCL	24	0	0	96	192	2
TAP	25	0	5
TAP	25	0	7
TAP	25	96	4
TAP	25	96	5
HLD	25	192	0	72
HLD	25	264	1	72
TAP	25	336	2
TAP	26	0	2
TAP	26	96	1
TAP	26	96	3
TAP	26	192	6
TAP	26	240	5
TAP	26	288	4
TAP	26	288	7
TAP	27	0	0
TAP	27	0	2
TAP	27	96	2
TAP	27	96	3
HLD	27	192	7	72
HLD	27	264	6	72
TAP	27	336	5
TAP	28	0	5
TAP	28	96	4
TAP	28	96	6
TAP	28	192	1
TAP	28	240	2
TAP	28	288	0
TAP	28	288	3
HLD	29	0	6	96
TAP	29	96	7
TAP	29	192	2
TAP	29	240	3
TAP	29	288	1
TAP	29	288	4
HLD	30	0	1	96
TAP	30	96	0
TAP	30	192	5
TAP	30	240	4
TAP	30	288	3
TAP	30	288	6
HLD	31	0	1	144
TAP	31	144	0
HLD	31	192	0	144
TAP	31	336	7
STR	32	0	7
SCR	32	0	7	96	192	5
TAP	33	0	2
TAP	33	96	1
TAP	33	96	7
HLD	33	192	3	72
HLD	33	264	4	72
TAP	33	336	5
TAP	34	0	5
TAP	34	96	0
TAP	34	96	6
HLD	34	192	4	72
HLD	34	264	3	72
TAP	34	336	2
TAP	35	0	2
TAP	35	96	1
TAP	35	96	7
HLD	35	192	3	72
HLD	35	264	4	72
TAP	35	336	5
TAP	36	0	5
TAP	36	96	0
TAP	36	96	6
TAP	36	192	5
TAP	36	240	4
TAP	36	288	3
TAP	36	288	5
TAP	37	0	5
TAP	37	96	0
TAP	37	96	6
HLD	37	192	5	72
HLD	37	264	4	72
TAP	37	336	3
TAP	38	0	2
TAP	38	96	1
TAP	38	96	7
HLD	38	192	2	72
HLD	38	264	3	72
TAP	38	336	4
TAP	39	0	2
TAP	39	0	3
TAP	39	96	3
TAP	39	96	6
BRK	39	192	4
BRK	39	192	5
TAP	40	0	2
TAP	40	24	3
TAP	40	48	2
TAP	40	72	3
TAP	40	144	5
TAP	40	168	4
TAP	40	192	5
TAP	40	216	4
STR	40	288	0
SSL	40	288	0	96	96	4
TAP	41	192	3
TAP	41	192	4
BRK	41	288	2
BRK	41	288	5
TAP	42	0	0
TAP	42	0	6
TAP	42	96	7
TAP	42	168	2
TAP	42	192	3
TAP	42	240	3
TAP	42	288	2
TAP	42	288	4
TAP	43	0	1
TAP	43	0	7
TAP	43	96	0
TAP	43	168	5
TAP	43	192	4
TAP	43	240	4
TAP	43	288	3
TAP	43	288	5
TAP	44	0	0
TAP	44	0	6
TAP	44	96	7
TAP	44	168	2
TAP	44	192	3
TAP	44	240	3
TAP	44	288	2
TAP	44	288	4
TAP	45	0	1
TAP	45	0	7
TAP	45	96	0
TAP	45	168	5
TAP	45	192	4
TAP	45	240	4
TAP	45	288	3
TAP	45	288	5
TAP	46	0	0
TAP	46	0	2
TAP	46	96	4
TAP	46	96	5
TAP	46	168	1
TAP	46	192	0
TAP	46	240	0
TAP	46	288	1
TAP	46	288	7
TAP	47	0	5
TAP	47	0	7
TAP	47	96	2
TAP	47	96	3
TAP	47	168	6
TAP	47	192	7
TAP	47	240	7
TAP	47	288	0
TAP	47	288	6
TAP	48	0	5
TAP	48	48	4
TAP	48	96	3
TAP	48	144	2
BRK	48	240	3
BRK	48	240	6
BRK	48	336	1
BRK	48	336	4
TAP	49	48	7
STR	49	96	7
SI_	49	96	7	96	48	3
TAP	49	288	0
TAP	49	336	1
TAP	50	0	2
TAP	50	96	7
TAP	50	144	7
HLD	50	192	6	72
HLD	50	264	5	72
TAP	50	336	4
TAP	51	0	4
TAP	51	96	1
TAP	51	96	3
TAP	51	168	2
TAP	51	192	3
TAP	51	240	3
TAP	51	288	1
TAP	51	336	0
TAP	52	0	7
TAP	52	96	0
TAP	52	144	0
HLD	52	192	1	72
HLD	52	264	2	72
TAP	52	336	3
TAP	53	0	3
TAP	53	96	4
TAP	53	96	6
TAP	53	168	5
TAP	53	192	4
TAP	53	240	4
TAP	53	288	6
TAP	53	336	7
TAP	54	0	2
TAP	54	96	7
TAP	54	144	7
HLD	54	192	6	72
HLD	54	264	5	72
TAP	54	336	4
TAP	55	0	4
TAP	55	96	1
TAP	55	96	3
TAP	55	168	2
TAP	55	192	3
TAP	55	240	3
TAP	55	288	1
TAP	55	336	0
TAP	56	0	7
TAP	56	48	6
TAP	56	96	5
TAP	56	144	4
TAP	56	240	1
STR	56	288	1
SI_	56	288	1	96	48	3
STR	57	0	7
SI_	57	0	7	96	48	5
STR	57	96	0
SI_	57	96	0	96	48	4
TAP	58	0	5
TAP	58	48	4
TAP	58	144	1
TAP	58	192	3
TAP	58	240	2
TAP	58	336	6
TAP	59	0	4
TAP	59	48	5
TAP	59	144	1
TAP	59	192	7
TAP	59	240	0
TAP	59	336	6
TAP	60	0	0
TAP	60	48	7
TAP	60	144	1
TAP	60	192	7
TAP	60	240	2
TAP	60	336	6
TAP	61	0	0
TAP	61	48	5
TAP	61	144	2
TAP	61	144	3
TAP	61	240	1
TAP	61	240	4
TAP	61	336	6
TAP	62	0	0
TAP	62	48	7
TAP	62	144	1
TAP	62	192	7
TAP	62	240	0
TAP	62	336	6
TAP	63	0	0
TAP	63	48	5
TAP	63	144	1
TAP	63	192	7
TAP	63	240	2
TAP	63	336	5
TAP	64	0	1
TAP	64	48	7
TAP	64	144	2
TAP	64	192	6
TAP	64	240	0
TAP	64	288	0
TAP	64	288	7
TAP	65	0	2
TAP	65	24	4
TAP	65	48	2
TAP	65	72	4
TAP	65	144	5
TAP	65	168	3
TAP	65	192	5
TAP	65	216	3

T_REC_TAP	341
T_REC_BRK	10
T_REC_XTP	0
T_REC_HLD	32
T_REC_XHO	0
T_REC_STR	17
T_REC_BST	0
T_REC_XST	0
T_REC_TTP	0
T_REC_THO	0
T_REC_SLD	17
T_REC_ALL	417
T_NUM_TAP	358
T_NUM_BRK	10
T_NUM_HLD	32
T_NUM_SLD	17
T_NUM_ALL	417
T_JUDGE_TAP	368
T_JUDGE_HLD	68
T_JUDGE_SLD	17
T_JUDGE_ALL	453
TTM_EACHPAIRS	73
TTM_SCR_TAP	179000
TTM_SCR_BRK	26000
TTM_SCR_HLD	32000
TTM_SCR_SLD	25500
TTM_SCR_ALL	262500
TTM_SCR_S	253700
TTM_SCR_SS	261500
TTM_RAT_ACV	10038

