VERSION	0.00.00	1.03.00
FES_MODE	0
BPM_DEF	155.000	155.000	155.000	155.000
MET_DEF	4	4
RESOLUTION	384
CLK_DEF	384
COMPATIBLE_CODE	MA2

BPM	0	0	155.000
MET	0	0	4	4

TAP	1	0	3
TAP	1	0	4
TAP	1	48	3
TAP	1	48	4
TAP	1	288	1
TAP	1	288	6
TAP	2	0	2
TAP	2	96	3
TAP	2	192	4
TAP	2	288	5
TAP	3	0	3
TAP	3	0	4
TAP	3	48	3
TAP	3	48	4
TAP	3	288	1
TAP	3	288	6
TAP	4	0	5
TAP	4	96	4
TAP	4	192	3
TAP	4	288	2
TAP	5	0	0
TAP	5	0	7
TAP	5	48	0
TAP	5	48	7
TAP	5	288	2
TAP	5	288	5
TAP	6	0	1
TAP	6	96	0
TAP	6	192	7
TAP	6	288	6
TAP	7	0	0
TAP	7	0	7
TAP	7	48	0
TAP	7	48	7
TAP	7	288	2
TAP	7	288	5
TAP	8	0	6
TAP	8	96	7
TAP	8	192	0
TAP	8	288	1
TAP	9	0	2
TAP	9	96	2
TAP	9	96	3
TAP	9	288	4
TAP	9	288	5
TAP	10	96	1
TAP	10	96	3
TAP	10	288	4
TAP	10	288	6
TAP	11	0	5
TAP	11	96	4
TAP	11	96	5
TAP	11	288	2
TAP	11	288	3
TAP	12	96	4
TAP	12	96	6
TAP	12	288	1
TAP	12	288	3
TAP	13	0	2
TAP	13	96	2
TAP	13	96	3
TAP	13	288	1
TAP	13	288	4
TAP	14	96	2
TAP	14	96	5
TAP	14	288	3
TAP	14	288	6
TAP	15	0	5
TAP	15	96	4
TAP	15	96	5
TAP	15	288	3
TAP	15	288	6
TAP	16	0	1
TAP	16	0	7
BRK	16	48	1
BRK	16	48	7
TAP	16	144	0
TAP	16	144	6
BRK	16	192	0
BRK	16	192	6
TAP	17	0	4
TAP	17	96	3
TAP	17	192	2
STR	17	288	1
SCR	17	288	1	96	144	4
TAP	18	288	2
TAP	19	0	3
TAP	19	96	4
TAP	19	192	5
STR	19	288	6
SCL	19	288	6	96	144	3
TAP	20	288	2
TAP	21	0	1
TAP	21	96	6
TAP	21	96	7
TAP	21	288	5
TAP	22	0	6
TAP	22	96	0
TAP	22	96	1
TAP	22	288	3
TAP	23	0	4
TAP	23	96	5
TAP	23	192	6
STR	23	288	7
SI_	23	288	7	96	96	3
TAP	24	288	4
TAP	25	0	5
TAP	25	96	6
TAP	25	192	7
STR	25	288	0
SCL	25	288	0	96	144	5
TAP	26	288	3
TAP	27	0	2
TAP	27	96	1
TAP	27	192	0
STR	27	288	7
SCR	27	288	7	96	144	2
TAP	28	288	3
TAP	29	0	4
TAP	29	96	5
TAP	29	96	7
TAP	29	288	4
TAP	30	0	3
TAP	30	96	0
TAP	30	96	2
TAP	30	288	1
TAP	31	0	0
TAP	31	96	7
TAP	31	192	6
STR	31	288	5
SCR	31	288	5	96	192	1
TAP	33	0	2
TAP	33	96	3
TAP	33	192	2
TAP	33	288	1
TAP	33	288	4
TAP	34	0	5
TAP	34	96	4
TAP	34	192	5
TAP	34	288	3
TAP	34	288	6
TAP	35	0	7
TAP	35	96	0
TAP	35	192	6
TAP	35	288	1
STR	36	0	2
SCL	36	0	2	96	192	6
TAP	37	0	5
TAP	37	96	4
TAP	37	192	5
TAP	37	288	3
TAP	37	288	6
TAP	38	0	2
TAP	38	96	3
TAP	38	192	2
TAP	38	288	1
TAP	38	288	4
TAP	39	0	0
TAP	39	96	7
TAP	39	192	1
TAP	39	288	6
TAP	40	0	3
TAP	40	0	5
TAP	40	48	3
TAP	40	48	5
TAP	40	144	2
TAP	40	144	4
TAP	40	192	2
TAP	40	192	4
BRK	40	288	1
BRK	40	288	6
TAP	41	288	4
TAP	42	0	3
TAP	42	96	2
TAP	42	192	1
STR	42	288	0
SI_	42	288	0	96	96	4
TAP	43	288	3
TAP	44	0	4
TAP	44	96	5
TAP	44	192	6
STR	44	288	7
SI_	44	288	7	96	96	3
TAP	45	288	0
TAP	46	0	1
TAP	46	96	2
TAP	46	192	3
STR	46	288	4
SI_	46	288	4	96	96	0
TAP	47	288	7
TAP	48	0	6
TAP	48	96	5
TAP	48	192	4
STR	48	288	3
SI_	48	288	3	96	96	7
TAP	49	288	0
TAP	50	0	1
TAP	50	0	7
TAP	50	96	2
TAP	50	96	6
TAP	50	192	3
TAP	50	192	5
STR	50	288	4
SI_	50	288	4	96	96	0
TAP	51	288	7
TAP	52	0	0
TAP	52	0	6
TAP	52	96	1
TAP	52	96	5
TAP	52	192	2
TAP	52	192	4
STR	52	288	3
SI_	52	288	3	96	96	7
TAP	53	288	0
TAP	54	0	1
TAP	54	0	5
TAP	54	96	2
TAP	54	96	6
TAP	54	192	3
TAP	54	192	7
STR	54	288	0
SI_	54	288	0	96	96	4
TAP	55	288	3
TAP	56	0	2
TAP	56	0	4
TAP	56	96	1
TAP	56	96	5
TAP	56	192	0
TAP	56	192	6
STR	56	288	7
SI_	56	288	7	96	96	3
TAP	58	0	1
TAP	58	96	2
TAP	58	192	3
TAP	58	288	4
TAP	58	288	5
TAP	59	0	6
TAP	59	96	5
TAP	59	192	4
TAP	59	288	2
TAP	59	288	3
TAP	60	0	1
TAP	60	96	0
TAP	60	192	1
TAP	60	288	2
TAP	60	288	7
TAP	61	0	6
TAP	61	96	7
TAP	61	192	6
TAP	61	288	0
TAP	61	288	5
TAP	62	0	4
TAP	62	96	3
TAP	62	192	2
TAP	62	288	1
TAP	62	288	6
TAP	63	0	2
TAP	63	96	3
TAP	63	192	4
TAP	63	288	2
TAP	63	288	5
TAP	64	0	1
TAP	64	96	6
TAP	64	192	2
TAP	64	288	3
TAP	64	288	4
TAP	65	0	0
TAP	65	0	6
BRK	65	48	0
BRK	65	48	6
TAP	65	144	1
TAP	65	144	7
BRK	65	192	1
BRK	65	192	7

T_REC_TAP	234
T_REC_BRK	10
T_REC_XTP	0
T_REC_HLD	0
T_REC_XHO	0
T_REC_STR	15
T_REC_BST	0
T_REC_XST	0
T_REC_TTP	0
T_REC_THO	0
T_REC_SLD	15
T_REC_ALL	274
T_NUM_TAP	249
T_NUM_BRK	10
T_NUM_HLD	0
T_NUM_SLD	15
T_NUM_ALL	274
T_JUDGE_TAP	259
T_JUDGE_HLD	0
T_JUDGE_SLD	15
T_JUDGE_ALL	274
TTM_EACHPAIRS	66
TTM_SCR_TAP	124500
TTM_SCR_BRK	26000
TTM_SCR_HLD	0
TTM_SCR_SLD	22500
TTM_SCR_ALL	173000
TTM_SCR_S	166850
TTM_SCR_SS	172000
TTM_RAT_ACV	10058

