VERSION	0.00.00	1.03.00
FES_MODE	0
BPM_DEF	155.000	155.000	155.000	155.000
MET_DEF	4	4
RESOLUTION	384
CLK_DEF	384
COMPATIBLE_CODE	MA2

BPM	0	0	155.000
MET	0	0	4	4

HLD	5	0	2	192
TAP	6	0	3
TAP	6	192	3
HLD	7	0	5	192
TAP	8	0	4
TAP	8	192	4
TAP	9	0	3
TAP	9	96	3
TAP	9	192	3
TAP	10	0	4
TAP	10	96	4
TAP	10	192	4
TAP	11	0	5
TAP	11	96	5
TAP	11	192	5
TAP	12	0	6
TAP	12	96	6
TAP	12	192	6
TAP	13	0	7
TAP	13	96	7
TAP	13	192	7
TAP	14	0	0
TAP	14	96	0
TAP	14	192	0
TAP	15	0	7
TAP	15	96	0
TAP	15	192	7
BRK	16	0	0
BRK	16	0	7
TAP	17	0	1
TAP	17	192	2
HLD	18	0	3	192
TAP	19	0	4
TAP	19	192	3
HLD	20	0	2	192
STR	21	0	0
SI_	21	0	0	96	288	4
TAP	23	0	5
TAP	23	192	6
TAP	24	0	6
TAP	24	0	7
TAP	25	0	6
TAP	25	192	5
HLD	26	0	4	192
TAP	27	0	3
TAP	27	192	4
HLD	28	0	5	192
STR	29	0	7
SI_	29	0	7	96	288	3
TAP	31	0	2
TAP	31	192	1
BRK	32	0	0
BRK	32	0	1
TAP	33	0	2
TAP	33	0	3
TAP	33	192	3
TAP	34	0	4
TAP	34	0	5
TAP	34	192	4
STR	35	0	3
SI_	35	0	3	96	288	0
TAP	37	0	0
TAP	37	0	1
TAP	37	192	0
TAP	38	0	6
TAP	38	0	7
TAP	38	192	7
TAP	39	0	0
TAP	39	96	0
TAP	39	192	7
TAP	39	288	7
BRK	40	0	1
BRK	40	0	6
TAP	42	0	0
TAP	42	96	0
TAP	42	192	1
TAP	43	0	2
TAP	43	96	2
TAP	43	192	3
TAP	44	0	4
TAP	44	96	4
TAP	44	192	5
HLD	45	0	6	192
TAP	46	0	7
TAP	46	96	7
TAP	46	192	6
HLD	47	0	3	192
HLD	47	0	4	192
TAP	48	0	1
TAP	48	96	1
TAP	48	192	2
HLD	49	0	3	192
HLD	49	0	4	192
TAP	50	0	7
TAP	50	96	7
TAP	50	192	6
TAP	51	0	5
TAP	51	96	5
TAP	51	192	4
TAP	52	0	3
TAP	52	96	3
TAP	52	192	2
HLD	53	0	1	192
TAP	54	0	0
TAP	54	96	0
TAP	54	192	1
HLD	55	0	3	192
HLD	55	0	4	192
HLD	56	0	2	192
HLD	56	0	5	192
BRK	57	0	2
BRK	57	0	5
TAP	58	0	1
TAP	58	96	1
TAP	58	192	1
TAP	59	0	2
TAP	59	96	2
TAP	59	192	2
TAP	60	0	3
TAP	60	96	3
TAP	60	192	3
TAP	61	0	4
TAP	61	96	4
TAP	61	192	4
TAP	62	0	5
TAP	62	96	5
TAP	62	192	5
TAP	63	0	6
TAP	63	96	6
TAP	63	192	6
TAP	64	0	7
TAP	64	96	7
TAP	64	192	7
STR	65	0	0
SI_	65	0	0	96	288	4

T_REC_TAP	103
T_REC_BRK	8
T_REC_XTP	0
T_REC_HLD	16
T_REC_XHO	0
T_REC_STR	4
T_REC_BST	0
T_REC_XST	0
T_REC_TTP	0
T_REC_THO	0
T_REC_SLD	4
T_REC_ALL	135
T_NUM_TAP	107
T_NUM_BRK	8
T_NUM_HLD	16
T_NUM_SLD	4
T_NUM_ALL	135
T_JUDGE_TAP	115
T_JUDGE_HLD	64
T_JUDGE_SLD	4
T_JUDGE_ALL	183
TTM_EACHPAIRS	13
TTM_SCR_TAP	53500
TTM_SCR_BRK	20800
TTM_SCR_HLD	16000
TTM_SCR_SLD	6000
TTM_SCR_ALL	96300
TTM_SCR_S	92650
TTM_SCR_SS	95500
TTM_RAT_ACV	10083

