VERSION	0.00.00	1.03.00
FES_MODE	0
BPM_DEF	 95.000	 95.000	 95.000	 95.000
MET_DEF	4	4
RESOLUTION	384
CLK_DEF	384
COMPATIBLE_CODE	MA2

BPM	0	0	 95.000
MET	0	0	4	4

TAP	1	0	1
TAP	1	72	3
TAP	1	144	5
TAP	1	288	0
TAP	1	288	7
TAP	2	0	6
TAP	2	72	4
TAP	2	144	2
STR	2	288	0
SI_	2	288	0	96	24	3
STR	2	288	7
SI_	2	288	7	96	24	4
TAP	3	72	1
TAP	3	96	0
HLD	3	144	1	48
HLD	3	192	0	48
HLD	3	240	7	48
HLD	3	288	6	72
TAP	3	360	1
TAP	4	0	2
TAP	4	29	1
TAP	4	48	3
TAP	4	77	1
TAP	4	96	2
TAP	4	144	1
STR	4	192	0
SCL	4	192	0	96	48	5
TAP	4	288	0
TAP	4	336	1
TAP	5	0	2
TAP	5	72	4
TAP	5	96	3
HLD	5	144	6	48
HLD	5	192	7	48
HLD	5	240	0	48
HLD	5	288	1	72
TAP	5	360	7
STR	6	0	0
SI_	6	0	0	96	24	6
STR	6	48	0
SI_	6	48	0	96	24	3
TAP	6	288	7
TAP	7	0	0
TAP	7	0	1
TAP	7	72	6
TAP	7	72	7
TAP	7	144	4
TAP	7	144	5
TAP	7	240	2
TAP	7	240	3
TAP	7	288	3
TAP	7	288	4
TAP	8	0	6
TAP	8	0	7
TAP	8	72	0
TAP	8	72	1
TAP	8	144	2
TAP	8	144	3
TAP	8	240	0
TAP	8	288	4
TAP	8	336	0
TAP	9	0	3
TAP	9	0	4
TAP	9	72	1
TAP	9	72	3
TAP	9	144	4
TAP	9	144	6
TAP	9	240	0
TAP	9	240	7
HLD	9	288	7	96
HLD	10	0	5	72
HLD	10	72	3	72
TAP	10	144	1
TAP	10	240	3
TAP	10	240	7
TAP	10	288	2
TAP	10	288	6
TAP	10	336	1
TAP	10	336	5
TAP	11	0	0
TAP	11	0	4
TAP	11	48	2
TAP	11	77	3
TAP	11	96	3
TAP	11	144	5
TAP	11	173	4
TAP	11	192	4
TAP	11	240	2
TAP	11	240	5
BRK	11	288	0
BRK	11	288	7
STR	12	0	3
SCR	12	0	3	96	48	6
TAP	12	173	1
TAP	12	192	0
TAP	12	240	6
TAP	12	288	7
STR	13	0	4
SCL	13	0	4	96	48	1
TAP	13	173	6
TAP	13	192	7
TAP	13	240	1
TAP	13	288	0
TAP	13	336	7
STR	14	0	6
SUL	14	0	6	96	48	7
TAP	14	173	1
TAP	14	192	0
TAP	14	240	3
TAP	14	288	4
STR	15	0	7
SI_	15	0	7	96	48	3
STR	15	48	1
SI_	15	48	1	96	48	5
STR	15	288	0
SCR	15	288	0	96	48	3
STR	15	288	7
SCL	15	288	7	96	48	4
STR	16	192	0
SI_	16	192	0	96	48	4
TAP	16	192	1
TAP	16	288	2
TAP	17	0	6
STR	17	0	7
SI_	17	0	7	96	48	3
TAP	17	96	5
TAP	17	192	2
TAP	17	192	3
TAP	17	288	6
TAP	17	288	7
TAP	17	336	0
TAP	17	336	5
TAP	18	0	1
STR	18	0	4
SUL	18	0	4	96	48	6
TAP	18	96	2
STR	18	192	3
SUR	18	192	3	96	48	1
TAP	18	192	6
TAP	18	288	5
TAP	19	0	0
TAP	19	0	7
TAP	19	48	0
TAP	19	48	7
TAP	19	72	1
TAP	19	72	6
TAP	19	120	1
TAP	19	120	6
TAP	19	144	2
TAP	19	144	5
TAP	19	288	3
TAP	19	288	4
BRK	20	0	0
BRK	20	0	7
TAP	20	77	1
TAP	20	96	0
TAP	20	125	0
TAP	20	144	7
TAP	20	173	7
TAP	20	192	6
TAP	20	240	0
TAP	20	269	7
TAP	20	288	0
TAP	20	317	7
TAP	20	365	2
TAP	21	0	3
TAP	21	29	3
TAP	21	48	4
TAP	21	77	4
TAP	21	96	5
TAP	21	144	3
TAP	21	173	4
TAP	21	288	0
TAP	21	288	1
TAP	22	0	6
TAP	22	0	7
TAP	22	77	2
HLD	22	96	2	48
HLD	22	144	3	48
HLD	22	192	4	48
HLD	22	240	5	48
HLD	22	288	6	48
TAP	22	336	0
TAP	22	365	7
HLD	23	0	0	48
HLD	23	48	6	48
HLD	23	96	4	48
TAP	23	144	2
TAP	23	240	1
TAP	23	240	7
BRK	23	288	0
BRK	23	288	6
TAP	24	0	2
TAP	24	0	3
TAP	24	48	2
TAP	24	48	3
TAP	24	96	4
TAP	24	96	5
TAP	24	144	4
TAP	24	144	5
TAP	24	192	2
TAP	24	192	3
TAP	24	240	1
TAP	24	240	3
TAP	24	288	4
TAP	24	288	5
TAP	24	336	4
TAP	24	336	6
TAP	25	0	1
TAP	25	0	2
TAP	25	48	2
TAP	25	48	3
TAP	25	96	5
TAP	25	96	6
TAP	25	144	4
TAP	25	144	5
STR	25	192	0
SUL	25	192	0	96	48	3
STR	25	192	7
SCL	25	192	7	96	48	4
HLD	26	0	2	192
TAP	26	96	0
TAP	26	144	4
TAP	26	192	6
TAP	26	240	2
TAP	26	240	6
TAP	26	288	0
TAP	26	288	4
TAP	26	336	0
TAP	26	336	1
TAP	27	0	0
TAP	27	0	7
TAP	27	48	6
TAP	27	48	7
TAP	27	96	2
TAP	27	96	3
TAP	27	144	3
TAP	27	144	4
TAP	27	192	4
TAP	27	192	5
TAP	27	288	3
TAP	27	336	4
HLD	28	0	2	48
TAP	28	48	1
HLD	28	96	2	48
TAP	28	144	0
HLD	28	192	2	48
TAP	28	240	7
HLD	28	288	2	48
TAP	28	336	6
HLD	29	0	5	48
TAP	29	48	6
HLD	29	96	5	48
TAP	29	144	7
HLD	29	192	5	48
TAP	29	240	0
TAP	29	288	5
TAP	29	336	5
STR	30	0	0
SUL	30	0	0	96	48	3
TAP	30	173	5
TAP	30	192	4
TAP	30	240	0
TAP	30	288	0
TAP	31	0	6
TAP	31	48	6
TAP	31	77	5
TAP	31	125	5
TAP	31	144	4
TAP	32	0	0
TAP	32	0	4
TAP	32	48	1
TAP	32	48	5
TAP	32	96	2
TAP	32	96	6
TAP	32	192	3
TAP	32	192	7
TAP	32	240	2
TAP	32	240	6
TAP	32	288	1
TAP	32	288	5
TAP	33	0	0
TAP	33	0	1
TAP	33	48	1
TAP	33	48	2
TAP	33	96	2
TAP	33	96	3
TAP	33	144	3
TAP	33	144	4
TAP	33	192	4
TAP	33	192	5
TAP	33	240	5
TAP	33	240	6
TAP	33	288	6
TAP	33	288	7
TAP	34	0	0
TAP	34	0	1
TAP	34	48	6
TAP	34	48	7
TAP	34	96	2
TAP	34	96	5
TAP	34	192	2
TAP	34	192	3
TAP	34	240	4
TAP	34	240	5
TAP	34	288	1
TAP	34	288	6
TAP	34	365	7
TAP	35	0	0
TAP	35	48	7
TAP	35	96	1
TAP	35	144	6
TAP	35	192	3
TAP	35	192	4
TAP	35	288	6
TAP	35	288	7
TAP	35	336	0
TAP	35	336	7
TAP	36	0	0
TAP	36	0	1
TAP	36	48	4
TAP	36	48	5
TAP	36	96	3
TAP	36	96	4
TAP	36	144	2
TAP	36	144	3
STR	36	192	1
SUR	36	192	1	96	48	5
STR	36	192	5
SUR	36	192	5	96	48	1
TAP	37	0	2
TAP	37	0	3
TAP	37	48	4
TAP	37	48	5
TAP	37	96	1
TAP	37	96	3
TAP	37	144	4
TAP	37	144	6
TAP	37	192	3
TAP	37	192	4
TAP	37	288	0
TAP	37	288	7
TAP	37	365	0
TAP	38	0	7
TAP	38	48	2
TAP	38	48	3
TAP	38	96	4
TAP	38	96	5
TAP	38	173	3
HLD	38	192	4	96
TAP	38	240	6
HLD	38	288	3	48
TAP	38	336	1
TAP	39	0	3
TAP	39	0	4
TAP	39	48	1
TAP	39	48	6
TAP	39	96	0
TAP	39	96	7
TAP	39	144	3
TAP	39	144	4
BRK	39	168	1
BRK	39	168	6
TAP	39	288	0
STR	39	336	1
SI_	39	336	1	96	24	4
TAP	40	0	7
STR	40	48	6
SI_	40	48	6	96	24	3
TAP	40	96	2
STR	40	144	0
SI_	40	144	0	96	24	4
TAP	40	192	5
STR	40	240	7
SI_	40	240	7	96	24	3
TAP	40	288	3
STR	40	336	2
SI_	40	336	2	96	24	7
TAP	41	0	4
STR	41	48	5
SI_	41	48	5	96	24	0
TAP	41	96	0
STR	41	144	1
SI_	41	144	1	96	24	4
TAP	41	192	7
TAP	41	240	7
TAP	42	0	0
TAP	42	0	1
STR	42	48	0
SI_	42	48	0	96	24	5
STR	42	48	1
SI_	42	48	1	96	24	4
TAP	42	96	0
TAP	42	96	1
TAP	42	192	6
TAP	42	192	7
STR	42	240	6
SI_	42	240	6	96	24	3
STR	42	240	7
SI_	42	240	7	96	24	2
TAP	42	288	6
TAP	42	288	7
TAP	43	0	0
TAP	43	0	7
TAP	43	48	2
TAP	43	48	5
TAP	43	96	3
TAP	43	125	4
TAP	43	144	3
TAP	43	269	2
TAP	43	288	4
TAP	43	317	2
TAP	43	336	4
TAP	43	365	1
TAP	44	0	5
TAP	44	29	3
TAP	44	48	5
TAP	44	77	3
TAP	44	96	4
TAP	44	125	3
TAP	44	144	4
TAP	44	173	3
TAP	44	192	7
TAP	44	221	0
TAP	44	269	1
TAP	44	269	6
TAP	44	317	4
TAP	44	336	3
TAP	45	0	6
TAP	45	29	7
TAP	45	48	1
TAP	45	77	0
TAP	45	96	1
TAP	45	96	6
TAP	45	144	2
TAP	45	144	5
TAP	45	192	0
TAP	45	192	7
TAP	45	221	0
TAP	45	221	7
TAP	45	240	1
TAP	45	240	6
TAP	45	317	2
TAP	45	336	4
TAP	45	365	2
TAP	46	0	4
TAP	46	29	3
TAP	46	48	5
TAP	46	77	3
TAP	46	96	5
TAP	46	125	1
TAP	46	144	7
TAP	46	173	0
TAP	46	192	6
TAP	46	221	1
TAP	46	269	6
TAP	46	336	0
TAP	46	336	1
TAP	47	0	4
TAP	47	0	5
TAP	47	48	3
TAP	47	48	4
TAP	47	77	2
TAP	47	96	6
TAP	47	125	7
BRK	47	144	0
STR	47	288	5
SUR	47	288	5	96	48	2
STR	47	288	6
SCR	47	288	6	96	48	2
HLD	48	96	1	240
TAP	48	192	7
TAP	48	240	7
HLD	48	336	5	192
TAP	49	0	3
TAP	49	48	3
TAP	49	96	7
TAP	49	144	7
TAP	49	221	0
TAP	49	240	7
TAP	50	0	0
TAP	50	0	7
HLD	50	96	0	144
TAP	50	192	2
TAP	50	240	2
TAP	50	336	6
TAP	50	365	1
TAP	51	0	0
TAP	51	0	7
STR	51	96	5
SUL	51	96	5	96	192	3
TAP	51	144	5

T_REC_TAP	381
T_REC_BRK	9
T_REC_XTP	0
T_REC_HLD	32
T_REC_XHO	0
T_REC_STR	35
T_REC_BST	0
T_REC_XST	0
T_REC_TTP	0
T_REC_THO	0
T_REC_SLD	35
T_REC_ALL	492
T_NUM_TAP	416
T_NUM_BRK	9
T_NUM_HLD	32
T_NUM_SLD	35
T_NUM_ALL	492
T_JUDGE_TAP	425
T_JUDGE_HLD	96
T_JUDGE_SLD	35
T_JUDGE_ALL	556
TTM_EACHPAIRS	120
TTM_SCR_TAP	208000
TTM_SCR_BRK	23400
TTM_SCR_HLD	32000
TTM_SCR_SLD	52500
TTM_SCR_ALL	315900
TTM_SCR_S	305550
TTM_SCR_SS	315000
TTM_RAT_ACV	10028

