VERSION	0.00.00	1.03.00
FES_MODE	0
BPM_DEF	 95.000	 95.000	 95.000	 95.000
MET_DEF	4	4
RESOLUTION	384
CLK_DEF	384
COMPATIBLE_CODE	MA2

BPM	0	0	 95.000
MET	0	0	4	4

TAP	2	288	0
TAP	3	0	2
HLD	3	192	5	384
TAP	4	0	6
TAP	4	96	1
TAP	4	192	7
TAP	4	288	2
TAP	5	0	1
TAP	5	96	3
TAP	5	96	4
TAP	5	192	6
TAP	5	288	7
TAP	6	0	1
TAP	6	0	6
TAP	6	96	0
TAP	6	96	7
STR	6	192	2
SUR	6	192	2	96	96	7
TAP	7	96	4
TAP	7	96	5
HLD	7	192	2	384
TAP	7	288	6
TAP	8	0	7
HLD	8	96	7	96
TAP	8	288	0
TAP	8	288	4
TAP	9	0	3
TAP	9	0	7
TAP	9	96	0
TAP	9	96	7
TAP	9	288	0
TAP	9	288	7
HLD	10	0	0	96
HLD	10	0	7	96
TAP	11	0	0
HLD	11	0	4	192
TAP	11	96	1
TAP	11	192	0
BRK	11	288	3
BRK	11	288	4
TAP	12	0	1
TAP	12	96	6
TAP	12	192	1
TAP	12	288	6
HLD	13	0	4	96
HLD	13	0	5	96
HLD	13	192	1	96
HLD	13	192	2	96
TAP	14	0	1
TAP	14	96	6
TAP	14	192	1
TAP	14	288	6
TAP	15	0	2
TAP	15	0	3
TAP	15	96	0
HLD	15	192	6	96
STR	15	288	7
SCR	15	288	7	96	96	2
HLD	16	192	5	384
TAP	17	0	6
TAP	17	96	1
TAP	17	192	7
TAP	17	288	2
TAP	18	0	1
TAP	18	96	3
TAP	18	96	4
TAP	18	192	6
TAP	18	288	7
TAP	19	0	1
TAP	19	0	6
TAP	19	96	0
TAP	19	96	7
STR	19	192	2
SUR	19	192	2	96	96	7
STR	19	192	3
SUR	19	192	3	96	96	7
TAP	20	96	4
TAP	20	96	5
HLD	20	192	2	384
TAP	20	288	6
TAP	21	0	7
HLD	21	96	7	96
STR	21	288	0
SI_	21	288	0	96	48	3
STR	21	288	4
SI_	21	288	4	96	48	7
TAP	22	96	1
TAP	22	96	7
TAP	22	192	0
TAP	22	192	6
TAP	22	288	0
TAP	22	288	7
HLD	23	0	0	96
HLD	23	0	7	96
TAP	24	0	3
HLD	24	0	4	288
TAP	24	96	0
TAP	24	192	6
TAP	24	288	0
TAP	25	0	1
TAP	25	0	7
TAP	25	96	0
TAP	25	96	6
TAP	25	192	1
TAP	25	192	7
TAP	25	288	0
TAP	25	288	7
HLD	26	0	3	288
TAP	26	0	4
TAP	26	96	2
TAP	26	192	4
HLD	26	288	4	192
TAP	27	0	5
TAP	27	96	3
TAP	27	192	3
TAP	27	192	4
TAP	27	288	1
TAP	27	288	6
TAP	28	0	3
HLD	28	0	5	96
HLD	28	96	4	96
HLD	28	192	2	96
TAP	28	288	3
HLD	29	0	2	96
TAP	29	0	4
HLD	29	96	3	96
HLD	29	192	5	96
TAP	29	288	4
HLD	30	0	4	96
TAP	30	0	5
HLD	30	96	3	96
HLD	30	192	2	96
TAP	30	288	0
HLD	31	0	1	96
STR	31	96	0
SUR	31	96	0	96	96	6
TAP	32	0	2
TAP	32	0	6
TAP	32	96	3
TAP	32	96	5
TAP	32	192	2
TAP	32	192	6
TAP	32	288	3
TAP	32	288	5
TAP	33	0	1
TAP	33	0	5
TAP	33	96	2
TAP	33	96	4
TAP	33	192	1
TAP	33	192	5
TAP	33	288	2
TAP	33	288	4
TAP	34	0	2
TAP	34	0	6
TAP	34	96	3
TAP	34	96	5
TAP	34	192	2
TAP	34	192	6
TAP	34	288	3
TAP	34	288	5
TAP	35	0	0
TAP	35	0	7
TAP	35	96	2
TAP	35	96	5
BRK	35	192	1
BRK	35	192	6
HLD	36	0	2	288
TAP	36	0	5
TAP	36	96	3
TAP	36	192	7
TAP	36	288	4
TAP	37	0	3
HLD	37	0	6	192
TAP	37	96	4
HLD	37	192	2	96
TAP	37	288	3
HLD	38	0	5	96
HLD	38	96	4	96
HLD	38	192	3	96
HLD	38	288	2	96
HLD	39	0	0	96
TAP	39	96	7
HLD	39	192	2	96
HLD	39	192	5	96
HLD	40	0	1	96
TAP	40	0	3
HLD	40	96	7	96
TAP	40	192	6
TAP	40	240	6
HLD	41	0	2	96
TAP	41	0	7
TAP	41	48	6
TAP	41	96	6
TAP	41	192	0
HLD	41	192	5	96
TAP	41	240	1
TAP	41	288	1
STR	42	0	3
SCR	42	0	3	96	64	6
STR	42	0	7
SCR	42	0	7	96	64	2
STR	42	192	0
SCL	42	192	0	96	64	5
STR	42	192	4
SCL	42	192	4	96	64	1
HLD	43	0	3	288
TAP	43	0	7
TAP	43	96	6
TAP	43	192	7
TAP	43	288	6
TAP	44	0	1
HLD	44	0	5	192
TAP	44	96	0
TAP	44	192	7
TAP	44	288	3
TAP	44	288	4
TAP	45	0	0
TAP	45	0	1
TAP	45	96	0
TAP	45	96	7
TAP	45	192	6
TAP	45	192	7
TAP	45	288	0
TAP	45	288	7
TAP	46	0	1
HLD	46	0	6	192
TAP	46	96	0
STR	46	192	4
SUR	46	192	4	96	96	0
TAP	47	192	1
TAP	47	192	6
TAP	47	288	0
TAP	47	288	6
HLD	48	0	1	288
HLD	48	0	7	288
STR	49	0	1
SCR	49	0	1	96	96	3
STR	49	0	7
SCL	49	0	7	96	96	5
TAP	50	0	3
HLD	50	0	4	192
TAP	50	96	5
HLD	50	192	3	192
TAP	50	288	2
STR	51	0	5
SUL	51	0	5	96	192	3

T_REC_TAP	162
T_REC_BRK	4
T_REC_XTP	0
T_REC_HLD	50
T_REC_XHO	0
T_REC_STR	15
T_REC_BST	0
T_REC_XST	0
T_REC_TTP	0
T_REC_THO	0
T_REC_SLD	15
T_REC_ALL	246
T_NUM_TAP	177
T_NUM_BRK	4
T_NUM_HLD	50
T_NUM_SLD	15
T_NUM_ALL	246
T_JUDGE_TAP	181
T_JUDGE_HLD	324
T_JUDGE_SLD	15
T_JUDGE_ALL	520
TTM_EACHPAIRS	71
TTM_SCR_TAP	88500
TTM_SCR_BRK	10400
TTM_SCR_HLD	50000
TTM_SCR_SLD	22500
TTM_SCR_ALL	171400
TTM_SCR_S	165900
TTM_SCR_SS	171000
TTM_RAT_ACV	10023

