VERSION	0.00.00	1.03.00
FES_MODE	0
BPM_DEF	 95.000	 95.000	 95.000	 95.000
MET_DEF	4	4
RESOLUTION	384
CLK_DEF	384
COMPATIBLE_CODE	MA2

BPM	0	0	 95.000
MET	0	0	4	4

TAP	2	288	0
TAP	3	0	7
TAP	3	192	0
TAP	4	0	0
TAP	4	96	0
TAP	4	192	1
TAP	4	288	7
TAP	5	0	0
TAP	5	192	7
TAP	6	0	7
TAP	6	96	7
TAP	6	192	6
TAP	6	288	0
TAP	6	288	7
TAP	7	0	0
TAP	7	0	7
TAP	7	192	1
TAP	7	192	6
TAP	8	0	2
TAP	8	96	5
TAP	8	192	3
TAP	8	192	4
TAP	8	288	1
TAP	8	288	6
TAP	9	0	0
TAP	9	0	7
TAP	9	192	1
HLD	10	0	0	192
STR	10	288	7
SUL	10	288	7	96	240	4
TAP	12	0	2
TAP	12	0	3
TAP	12	192	2
TAP	12	192	3
TAP	13	0	5
TAP	13	96	4
TAP	13	192	5
TAP	13	288	4
TAP	14	0	4
TAP	14	0	5
TAP	14	192	4
TAP	14	192	5
TAP	15	0	2
TAP	15	96	3
TAP	15	192	2
TAP	15	288	3
BRK	16	0	0
TAP	16	192	7
TAP	17	0	7
TAP	17	96	6
TAP	17	192	5
TAP	17	288	4
BRK	18	0	7
TAP	18	192	0
TAP	19	0	0
TAP	19	96	1
TAP	19	192	2
TAP	19	288	3
TAP	20	0	3
TAP	20	0	4
TAP	20	192	2
TAP	20	192	5
TAP	21	0	2
TAP	21	0	3
TAP	21	96	3
TAP	21	96	4
TAP	21	192	4
TAP	21	192	5
TAP	21	288	1
TAP	21	288	6
TAP	22	0	0
TAP	22	0	7
TAP	22	192	0
TAP	22	192	7
TAP	23	0	1
TAP	23	96	0
TAP	23	192	7
BRK	23	288	6
HLD	24	0	3	96
TAP	24	96	4
HLD	24	192	4	96
TAP	24	288	3
HLD	25	0	3	96
TAP	25	96	5
HLD	25	192	5	96
TAP	25	288	4
HLD	26	0	2	96
TAP	26	96	3
HLD	26	192	5	96
TAP	26	288	4
HLD	27	0	1	96
TAP	27	96	3
HLD	27	192	6	96
TAP	27	288	4
HLD	28	0	1	96
HLD	28	192	4	96
HLD	29	0	3	96
HLD	29	192	6	96
HLD	30	0	0	96
HLD	30	192	7	96
TAP	31	0	0
TAP	31	0	7
TAP	31	96	1
TAP	31	96	6
TAP	31	192	2
TAP	31	192	5
TAP	31	288	3
TAP	31	288	4
HLD	32	0	1	96
HLD	32	192	6	96
TAP	33	0	0
TAP	33	96	7
TAP	33	192	0
TAP	33	288	7
HLD	34	0	2	96
HLD	34	192	5	96
TAP	35	0	3
TAP	35	96	4
TAP	35	192	3
TAP	35	192	4
STR	36	0	2
SUL	36	0	2	96	192	5
STR	37	0	5
SUR	37	0	5	96	192	2
STR	38	0	1
SCL	38	0	1	96	144	6
STR	39	0	6
SCR	39	0	6	96	144	1
TAP	40	0	2
TAP	40	0	3
TAP	40	192	4
TAP	40	192	5
TAP	41	0	2
TAP	41	96	3
TAP	41	192	4
TAP	41	288	5
TAP	42	0	4
TAP	42	0	5
TAP	42	192	2
TAP	42	192	3
TAP	43	0	5
TAP	43	96	4
TAP	43	192	3
TAP	43	288	2
TAP	44	0	1
TAP	44	96	1
HLD	44	192	1	96
TAP	45	0	6
TAP	45	96	6
HLD	45	192	6	96
TAP	46	0	2
TAP	46	0	3
TAP	46	192	4
TAP	46	192	5
TAP	47	0	2
TAP	47	0	3
TAP	47	96	4
TAP	47	96	5
TAP	47	192	6
TAP	47	192	7
TAP	47	288	0
TAP	47	288	1
BRK	48	0	0
BRK	48	0	7
TAP	48	192	0
TAP	48	192	4
TAP	49	0	0
TAP	49	0	4
TAP	49	96	1
TAP	49	96	5
TAP	49	192	2
TAP	49	192	6
TAP	50	0	0
TAP	50	0	7
TAP	50	192	2
TAP	50	192	5
TAP	51	0	0
TAP	51	0	7
TAP	51	96	0
TAP	51	96	7

T_REC_TAP	144
T_REC_BRK	5
T_REC_XTP	0
T_REC_HLD	21
T_REC_XHO	0
T_REC_STR	5
T_REC_BST	0
T_REC_XST	0
T_REC_TTP	0
T_REC_THO	0
T_REC_SLD	5
T_REC_ALL	180
T_NUM_TAP	149
T_NUM_BRK	5
T_NUM_HLD	21
T_NUM_SLD	5
T_NUM_ALL	180
T_JUDGE_TAP	154
T_JUDGE_HLD	88
T_JUDGE_SLD	5
T_JUDGE_ALL	247
TTM_EACHPAIRS	42
TTM_SCR_TAP	74500
TTM_SCR_BRK	13000
TTM_SCR_HLD	21000
TTM_SCR_SLD	7500
TTM_SCR_ALL	116000
TTM_SCR_S	112050
TTM_SCR_SS	115500
TTM_RAT_ACV	10043

