VERSION	0.00.00	1.03.00
FES_MODE	0
BPM_DEF	165.000	165.000	165.000	165.000
MET_DEF	4	4
RESOLUTION	384
CLK_DEF	384
COMPATIBLE_CODE	MA2

BPM	0	0	165.000
MET	0	0	4	4

HLD	1	0	6	96
HLD	1	96	5	144
HLD	1	240	4	144
HLD	2	0	3	144
HLD	2	144	2	96
TAP	2	240	1
TAP	2	288	0
TAP	2	336	1
TAP	3	48	6
TAP	3	96	7
TAP	3	144	6
TAP	3	288	3
TAP	3	336	2
TAP	4	48	4
TAP	4	96	5
TAP	4	192	3
TAP	4	240	4
TAP	4	288	1
TAP	4	336	6
HLD	5	0	2	96
TAP	5	48	0
TAP	5	96	7
TAP	5	192	6
TAP	5	240	0
HLD	6	0	5	96
TAP	6	48	7
TAP	6	96	0
TAP	6	192	1
TAP	6	240	7
HLD	7	0	2	96
TAP	7	48	3
TAP	7	96	4
TAP	7	192	5
TAP	7	240	2
TAP	8	0	3
TAP	8	0	4
TAP	8	96	5
TAP	8	96	6
TAP	8	192	1
TAP	8	192	2
TAP	8	288	0
TAP	8	288	7
STR	9	0	1
SI_	9	0	1	96	48	4
TAP	9	48	5
STR	9	192	6
SI_	9	192	6	96	48	3
TAP	9	240	2
HLD	9	336	0	144
STR	10	96	3
SI_	10	96	3	96	48	7
STR	10	192	4
SI_	10	192	4	96	48	0
BRK	10	288	7
HLD	11	0	6	144
TAP	11	48	4
TAP	11	144	0
HLD	11	192	1	144
TAP	11	240	3
TAP	11	336	7
TAP	12	48	5
TAP	12	96	2
TAP	12	144	4
TAP	12	192	3
TAP	12	240	0
HLD	13	0	1	144
TAP	13	48	3
TAP	13	144	7
HLD	13	192	6	144
TAP	13	240	4
TAP	13	336	0
TAP	14	48	2
TAP	14	96	5
TAP	14	144	3
TAP	14	192	4
TAP	14	240	7
HLD	15	0	5	144
TAP	15	48	7
TAP	15	144	1
HLD	15	192	2	144
TAP	15	240	0
TAP	15	336	6
TAP	16	48	5
TAP	16	96	4
TAP	16	144	3
TAP	16	192	2
TAP	16	240	7
HLD	17	0	2	144
TAP	17	48	0
TAP	17	144	6
HLD	17	192	5	144
TAP	17	240	7
TAP	17	336	1
TAP	18	48	2
TAP	18	96	3
TAP	18	144	4
TAP	18	192	5
TAP	18	240	0
BRK	18	288	7
HLD	19	0	6	144
TAP	19	48	3
TAP	19	144	7
TAP	19	240	4
TAP	19	288	2
TAP	19	336	0
HLD	20	0	1	144
TAP	20	48	4
TAP	20	144	0
TAP	20	240	3
TAP	20	288	5
TAP	20	336	7
TAP	21	0	6
TAP	21	48	1
TAP	21	144	0
TAP	21	144	7
TAP	21	240	1
TAP	21	288	6
TAP	21	336	2
STR	22	0	5
SUR	22	0	5	96	72	3
STR	22	144	2
SUL	22	144	2	96	72	4
TAP	22	288	7
HLD	23	0	1	144
TAP	23	48	3
TAP	23	144	0
TAP	23	240	3
TAP	23	288	5
TAP	23	336	7
HLD	24	0	6	144
TAP	24	48	4
TAP	24	144	7
TAP	24	240	4
TAP	24	288	2
TAP	24	336	0
TAP	25	0	1
TAP	25	48	6
TAP	25	144	2
TAP	25	144	5
TAP	25	240	0
TAP	25	288	1
TAP	25	336	2
STR	26	0	3
SUL	26	0	3	96	72	4
STR	26	144	5
SCR	26	144	5	96	120	2
HLD	27	0	4	96
HLD	27	96	3	96
HLD	27	192	2	96
TAP	27	288	0
HLD	28	0	3	96
HLD	28	96	4	96
HLD	28	192	5	96
TAP	28	288	7
HLD	29	0	6	96
HLD	29	96	4	96
HLD	29	192	2	96
TAP	29	288	0
HLD	30	0	1	96
HLD	30	96	3	96
HLD	30	192	5	96
TAP	30	288	7
HLD	31	0	5	192
TAP	31	144	4
TAP	31	192	4
TAP	31	288	0
HLD	32	0	2	192
TAP	32	144	3
TAP	32	192	3
TAP	32	288	7
TAP	33	0	1
TAP	33	0	6
TAP	33	96	5
TAP	33	144	3
TAP	33	144	5
TAP	33	240	2
TAP	33	288	2
TAP	33	288	4
TAP	34	0	1
TAP	34	48	1
TAP	34	48	7
TAP	34	144	6
TAP	34	192	0
TAP	34	192	6
TAP	34	288	2
TAP	34	288	5
BRK	35	48	1
BRK	35	48	7
BRK	35	96	0
BRK	35	96	6
BRK	35	192	3
BRK	35	192	4
BRK	35	288	0
BRK	35	288	7
STR	36	0	6
SV_	36	0	6	96	48	3
TAP	36	48	2
STR	36	192	1
SV_	36	192	1	96	48	4
TAP	36	240	5
HLD	36	336	6	144
STR	37	96	0
SI_	37	96	0	96	48	4
BRK	37	192	7
HLD	37	336	3	96
TAP	38	48	2
TAP	38	96	1
TAP	38	144	0
TAP	38	192	7
TAP	38	240	6
TAP	38	288	5
HLD	38	336	4	96
TAP	39	48	5
TAP	39	96	6
TAP	39	144	7
TAP	39	192	0
TAP	39	192	5
TAP	39	288	2
TAP	39	288	7
STR	40	0	1
SV_	40	0	1	96	48	4
TAP	40	48	5
STR	40	192	6
SV_	40	192	6	96	48	3
TAP	40	240	2
HLD	40	336	1	144
STR	41	96	7
SI_	41	96	7	96	48	3
BRK	41	192	0
HLD	41	336	4	96
TAP	42	48	5
TAP	42	96	6
TAP	42	144	7
TAP	42	192	3
TAP	42	240	2
TAP	42	288	1
HLD	42	336	0	96
TAP	43	48	7
TAP	43	96	6
TAP	43	144	5
STR	43	192	4
SI_	43	192	4	96	48	0
BRK	43	288	7
HLD	44	0	2	96
HLD	44	96	3	96
TAP	44	192	7
TAP	44	240	7
HLD	44	336	5	144
TAP	45	48	4
TAP	45	96	4
TAP	45	192	1
TAP	45	240	0
HLD	46	0	5	96
HLD	46	96	4	96
TAP	46	192	0
TAP	46	240	0
HLD	46	336	2	144
TAP	47	48	3
TAP	47	96	3
TAP	47	192	6
TAP	47	240	7
STR	48	0	4
SV_	48	0	4	96	48	3
STR	48	192	1
SSR	48	192	1	96	96	5
STR	49	0	6
SSL	49	0	6	96	96	2
STR	49	192	0
SI_	49	192	0	96	48	4
TAP	50	0	5
TAP	50	48	3
TAP	50	48	5
TAP	50	144	3
TAP	50	192	1
TAP	50	192	3
TAP	50	288	1
TAP	50	336	1
TAP	50	336	7
TAP	51	48	7
TAP	51	96	5
TAP	51	96	7
TAP	51	192	6
TAP	51	240	1
BRK	51	288	0
BRK	51	288	7
STR	52	0	6
SI_	52	0	6	96	48	2
TAP	52	48	1
STR	52	192	1
SI_	52	192	1	96	48	5
TAP	52	240	6
HLD	52	336	7	144
STR	53	96	0
SSL	53	96	0	96	96	4
BRK	53	192	7
HLD	53	336	5	96
TAP	54	48	6
TAP	54	96	7
TAP	54	144	0
TAP	54	192	3
TAP	54	240	2
TAP	54	288	1
HLD	54	336	0	96
TAP	55	48	7
TAP	55	96	1
TAP	55	144	6
TAP	55	192	2
TAP	55	192	7
TAP	55	288	0
TAP	55	288	5
STR	56	0	1
SI_	56	0	1	96	48	5
TAP	56	48	6
STR	56	192	6
SI_	56	192	6	96	48	2
TAP	56	240	1
HLD	56	336	0	144
STR	57	96	7
SSR	57	96	7	96	96	3
BRK	57	192	0
HLD	57	336	2	96
TAP	58	48	1
TAP	58	96	0
TAP	58	144	7
TAP	58	192	4
TAP	58	240	5
TAP	58	288	6
HLD	58	336	7	96
TAP	59	48	0
TAP	59	96	1
TAP	59	144	2
STR	59	192	3
SI_	59	192	3	96	48	7
BRK	59	288	0
TAP	60	0	5
TAP	60	48	0
TAP	60	96	0
TAP	60	144	2
TAP	60	192	7
TAP	60	240	7
TAP	60	336	1
TAP	60	336	6
TAP	61	48	5
TAP	61	96	4
TAP	61	144	3
TAP	61	192	2
TAP	61	240	0
TAP	61	240	1
TAP	62	0	2
TAP	62	48	7
TAP	62	96	7
TAP	62	144	5
TAP	62	192	0
TAP	62	240	0
TAP	62	336	1
TAP	63	0	6
TAP	63	48	3
TAP	63	96	4
TAP	63	144	0
TAP	63	192	7
TAP	63	240	1
TAP	63	240	6
STR	64	0	3
SUR	64	0	3	96	96	4
STR	64	192	6
SUL	64	192	6	96	96	5
STR	65	0	1
SUR	65	0	1	96	96	2
STR	65	192	7
SI_	65	192	7	96	48	3
TAP	66	0	2
TAP	66	48	2
TAP	66	48	4
TAP	66	144	4
TAP	66	192	4
TAP	66	192	6
TAP	66	288	6
TAP	66	336	0
TAP	66	336	6
TAP	67	48	0
TAP	67	96	0
TAP	67	96	2
TAP	67	192	1
TAP	67	240	6
TAP	67	288	0
TAP	67	288	7
TAP	68	0	4
TAP	68	0	5
TAP	68	48	3
TAP	68	48	6
TAP	68	144	2
TAP	68	144	3
TAP	68	192	1
TAP	68	192	4
TAP	68	288	0
TAP	68	288	1
TAP	68	336	2
TAP	68	336	7
TAP	69	48	6
TAP	69	48	7
TAP	69	96	0
TAP	69	96	5
TAP	69	192	3
TAP	69	192	4
BRK	69	288	0
BRK	69	288	7
HLD	70	0	6	144
TAP	70	48	4
TAP	70	144	0
HLD	70	192	1	144
TAP	70	240	3
TAP	70	336	7
TAP	71	48	5
TAP	71	96	2
TAP	71	120	3
TAP	71	144	2
TAP	71	192	6
TAP	71	240	0
HLD	72	0	1	144
TAP	72	48	3
TAP	72	144	7
HLD	72	192	6	144
TAP	72	240	4
TAP	72	336	0
TAP	73	48	2
TAP	73	96	5
TAP	73	120	4
TAP	73	144	5
TAP	73	192	1
TAP	73	240	7
HLD	74	0	5	144
TAP	74	48	7
TAP	74	144	1
HLD	74	192	2	144
TAP	74	240	0
TAP	74	336	6
TAP	75	48	5
TAP	75	96	1
TAP	75	120	3
TAP	75	144	1
TAP	75	192	5
TAP	75	240	7
HLD	76	0	2	144
TAP	76	48	0
TAP	76	144	6
HLD	76	192	5	144
TAP	76	240	7
TAP	76	336	1
TAP	77	48	2
TAP	77	96	6
TAP	77	120	4
TAP	77	144	6
TAP	77	192	2
TAP	77	240	0
BRK	77	288	7
TAP	78	48	6
TAP	78	96	7
TAP	78	144	0
TAP	78	192	1
TAP	78	240	3
TAP	78	288	4
TAP	78	336	6
TAP	79	0	2
TAP	79	48	5

T_REC_TAP	322
T_REC_BRK	21
T_REC_XTP	0
T_REC_HLD	61
T_REC_XHO	0
T_REC_STR	30
T_REC_BST	0
T_REC_XST	0
T_REC_TTP	0
T_REC_THO	0
T_REC_SLD	30
T_REC_ALL	464
T_NUM_TAP	352
T_NUM_BRK	21
T_NUM_HLD	61
T_NUM_SLD	30
T_NUM_ALL	464
T_JUDGE_TAP	373
T_JUDGE_HLD	156
T_JUDGE_SLD	30
T_JUDGE_ALL	559
TTM_EACHPAIRS	43
TTM_SCR_TAP	176000
TTM_SCR_BRK	54600
TTM_SCR_HLD	61000
TTM_SCR_SLD	45000
TTM_SCR_ALL	336600
TTM_SCR_S	324500
TTM_SCR_SS	334500
TTM_RAT_ACV	10062

