VERSION	0.00.00	1.03.00
FES_MODE	0
BPM_DEF	165.000	165.000	165.000	165.000
MET_DEF	4	4
RESOLUTION	384
CLK_DEF	384
COMPATIBLE_CODE	MA2

BPM	0	0	165.000
MET	0	0	4	4

STR	3	0	2
SCR	3	0	2	96	192	7
HLD	4	0	1	192
TAP	5	0	4
HLD	5	0	5	288
TAP	5	96	1
TAP	5	192	4
TAP	5	288	1
HLD	6	0	2	288
TAP	6	0	3
TAP	6	96	6
TAP	6	192	3
TAP	6	288	6
TAP	7	0	0
STR	7	96	0
SCR	7	96	0	96	96	2
STR	7	96	7
SCL	7	96	7	96	96	5
TAP	8	0	1
TAP	8	0	4
TAP	8	96	3
TAP	8	192	3
TAP	8	192	6
TAP	8	288	4
TAP	9	0	0
TAP	9	192	0
TAP	9	336	1
STR	10	96	0
SI_	10	96	0	96	48	3
BRK	10	288	1
TAP	11	0	0
HLD	11	0	5	96
TAP	11	96	4
TAP	11	192	3
TAP	11	192	4
TAP	11	288	0
TAP	11	288	7
TAP	12	0	2
TAP	12	0	7
TAP	12	96	0
TAP	12	96	5
TAP	12	192	3
TAP	12	288	1
TAP	13	0	0
TAP	13	0	5
TAP	13	96	2
TAP	13	96	7
TAP	13	192	0
TAP	13	192	5
TAP	13	288	2
TAP	13	288	7
TAP	14	0	0
TAP	14	0	6
TAP	14	48	1
TAP	14	48	7
TAP	14	96	0
TAP	14	96	6
BRK	14	192	2
BRK	14	192	7
TAP	15	0	0
HLD	15	0	6	96
HLD	15	96	1	192
TAP	15	192	7
TAP	15	288	6
STR	16	0	2
SUR	16	0	2	96	192	5
TAP	16	0	5
TAP	17	0	1
TAP	17	0	6
TAP	17	96	0
TAP	17	96	7
TAP	17	192	1
TAP	17	192	6
TAP	17	288	0
TAP	17	288	7
TAP	18	0	3
TAP	18	0	4
STR	18	96	0
SCR	18	96	0	96	96	3
STR	18	96	7
SCL	18	96	7	96	96	4
TAP	19	0	3
HLD	19	0	5	672
TAP	19	96	4
TAP	19	192	3
TAP	19	288	4
TAP	20	0	1
TAP	20	96	0
TAP	20	192	1
TAP	20	288	0
TAP	21	0	1
TAP	21	0	6
TAP	21	96	3
TAP	21	96	4
TAP	21	192	0
TAP	21	192	7
TAP	21	288	2
TAP	21	288	5
TAP	22	0	0
TAP	22	0	5
TAP	22	96	2
TAP	22	96	6
HLD	22	192	1	96
TAP	22	288	7
STR	23	0	1
SUR	23	0	1	96	192	2
HLD	24	0	1	288
TAP	24	96	2
TAP	24	192	0
TAP	24	288	2
STR	25	0	1
SCR	25	0	1	96	96	4
TAP	25	192	0
TAP	25	288	5
TAP	26	0	1
HLD	26	0	5	96
TAP	26	96	6
BRK	26	192	0
BRK	26	192	7
STR	27	0	3
SI_	27	0	3	96	96	7
STR	27	0	4
SI_	27	0	4	96	96	6
TAP	27	288	2
TAP	27	288	3
STR	28	0	3
SI_	28	0	3	96	96	1
STR	28	0	4
SI_	28	0	4	96	96	0
TAP	28	288	4
TAP	28	288	5
STR	29	0	3
SI_	29	0	3	96	96	7
STR	29	0	4
SI_	29	0	4	96	96	6
TAP	29	288	2
TAP	29	288	3
STR	30	0	3
SI_	30	0	3	96	96	1
STR	30	0	4
SI_	30	0	4	96	96	0
TAP	30	288	3
TAP	30	288	4
TAP	31	0	1
HLD	31	0	5	288
TAP	31	96	4
TAP	31	192	1
TAP	31	288	4
HLD	32	0	2	288
TAP	32	0	6
TAP	32	96	3
TAP	32	192	6
TAP	32	288	3
TAP	33	0	4
TAP	33	0	6
TAP	33	144	3
TAP	33	144	4
STR	33	288	1
SCR	33	288	1	96	288	0
TAP	33	288	4
STR	35	0	1
SI_	35	0	1	96	48	7
BRK	35	192	0
TAP	36	0	0
HLD	36	0	4	192
TAP	36	96	0
TAP	36	192	0
STR	36	288	2
SV_	36	288	2	96	96	3
STR	36	288	5
SV_	36	288	5	96	96	4
BRK	37	192	0
BRK	37	192	5
TAP	38	0	4
TAP	38	0	5
TAP	38	96	1
TAP	38	192	2
TAP	38	192	3
TAP	38	288	6
STR	39	0	0
SI_	39	0	0	96	96	3
STR	39	0	7
SI_	39	0	7	96	96	4
TAP	40	0	0
HLD	40	0	4	192
TAP	40	96	0
TAP	40	192	0
STR	40	288	2
SV_	40	288	2	96	96	3
STR	40	288	5
SV_	40	288	5	96	96	4
BRK	41	192	0
BRK	41	192	5
TAP	42	0	4
TAP	42	0	5
TAP	42	96	1
TAP	42	192	2
TAP	42	192	3
TAP	42	288	6
STR	43	0	0
SI_	43	0	0	96	96	3
STR	43	0	7
SI_	43	0	7	96	96	4
TAP	44	0	3
TAP	44	0	6
TAP	44	96	4
HLD	44	192	2	480
TAP	44	288	3
TAP	45	0	1
TAP	45	96	3
TAP	45	192	1
TAP	45	240	0
TAP	45	288	0
TAP	46	0	1
TAP	46	0	4
TAP	46	96	3
HLD	46	192	5	480
TAP	46	288	4
TAP	47	0	6
TAP	47	96	4
TAP	47	192	6
TAP	47	240	7
TAP	47	288	7
STR	48	0	7
SCR	48	0	7	96	48	2
STR	48	192	0
SCL	48	192	0	96	48	5
HLD	49	0	0	144
BRK	49	192	0
TAP	50	0	1
TAP	50	48	0
TAP	50	144	1
TAP	50	192	0
TAP	50	288	1
TAP	50	336	0
TAP	51	48	1
TAP	51	96	0
BRK	51	192	0
TAP	52	0	0
HLD	52	0	4	192
TAP	52	96	0
TAP	52	192	0
STR	52	288	2
SV_	52	288	2	96	96	3
STR	52	288	5
SV_	52	288	5	96	96	4
BRK	53	192	0
BRK	53	192	5
TAP	54	0	4
TAP	54	0	5
TAP	54	96	1
TAP	54	192	2
TAP	54	192	3
TAP	54	288	6
STR	55	0	0
SI_	55	0	0	96	96	3
STR	55	0	7
SI_	55	0	7	96	96	4
TAP	56	0	0
HLD	56	0	4	192
TAP	56	96	0
TAP	56	192	0
STR	56	288	2
SV_	56	288	2	96	96	3
STR	56	288	5
SV_	56	288	5	96	96	4
BRK	57	192	0
BRK	57	192	5
TAP	58	0	4
TAP	58	0	5
TAP	58	96	1
TAP	58	192	2
TAP	58	192	3
TAP	58	288	6
STR	59	0	0
SI_	59	0	0	96	96	3
STR	59	0	7
SI_	59	0	7	96	96	4
TAP	60	0	3
TAP	60	0	6
TAP	60	96	4
HLD	60	192	2	480
TAP	60	288	3
TAP	61	0	1
TAP	61	96	3
TAP	61	192	1
TAP	61	240	0
TAP	61	288	0
TAP	62	0	1
TAP	62	0	4
TAP	62	96	3
HLD	62	192	5	480
TAP	62	288	4
TAP	63	0	6
TAP	63	96	4
TAP	63	192	6
TAP	63	240	7
TAP	63	288	7
STR	64	0	7
SCR	64	0	7	96	48	2
STR	64	192	0
SCL	64	192	0	96	48	5
HLD	65	0	0	144
BRK	65	192	0
TAP	66	0	1
TAP	66	48	0
TAP	66	144	1
TAP	66	192	0
TAP	66	288	1
TAP	66	336	0
TAP	67	48	1
TAP	67	96	0
BRK	67	192	0
TAP	68	0	1
TAP	68	48	0
TAP	68	144	1
TAP	68	192	0
TAP	68	288	1
TAP	68	336	0
TAP	69	48	1
TAP	69	96	0
BRK	69	192	0
BRK	69	288	0
TAP	70	0	0
HLD	70	0	5	96
TAP	70	96	4
TAP	70	192	3
TAP	70	192	4
TAP	70	288	0
TAP	70	288	7
TAP	71	0	2
TAP	71	0	7
TAP	71	96	0
TAP	71	96	5
TAP	71	192	3
TAP	71	288	1
TAP	72	0	0
TAP	72	0	5
TAP	72	96	2
TAP	72	96	7
TAP	72	192	0
TAP	72	192	5
TAP	72	288	2
TAP	72	288	7
TAP	73	0	0
TAP	73	0	6
TAP	73	48	1
TAP	73	48	7
TAP	73	96	0
TAP	73	96	6
BRK	73	192	2
BRK	73	192	7
TAP	74	0	0
HLD	74	0	6	96
HLD	74	96	1	192
TAP	74	192	7
TAP	74	288	6
STR	75	0	2
SUR	75	0	2	96	192	5
TAP	75	0	5
TAP	76	0	1
TAP	76	0	6
TAP	76	96	0
TAP	76	96	7
TAP	76	192	1
TAP	76	192	6
TAP	76	288	0
TAP	76	288	7
TAP	77	0	3
TAP	77	0	4
STR	77	96	0
SCR	77	96	0	96	96	3
STR	77	96	7
SCL	77	96	7	96	96	4
HLD	78	0	2	96
HLD	78	96	4	96
STR	78	192	5
SI_	78	192	5	96	48	1
BRK	79	0	0

T_REC_TAP	243
T_REC_BRK	23
T_REC_XTP	0
T_REC_HLD	27
T_REC_XHO	0
T_REC_STR	43
T_REC_BST	0
T_REC_XST	0
T_REC_TTP	0
T_REC_THO	0
T_REC_SLD	43
T_REC_ALL	379
T_NUM_TAP	286
T_NUM_BRK	23
T_NUM_HLD	27
T_NUM_SLD	43
T_NUM_ALL	379
T_JUDGE_TAP	309
T_JUDGE_HLD	134
T_JUDGE_SLD	43
T_JUDGE_ALL	486
TTM_EACHPAIRS	97
TTM_SCR_TAP	143000
TTM_SCR_BRK	59800
TTM_SCR_HLD	27000
TTM_SCR_SLD	64500
TTM_SCR_ALL	294300
TTM_SCR_S	283250
TTM_SCR_SS	292000
TTM_RAT_ACV	10078

