VERSION	0.00.00	1.03.00
FES_MODE	0
BPM_DEF	165.000	165.000	165.000	165.000
MET_DEF	4	4
RESOLUTION	384
CLK_DEF	384
COMPATIBLE_CODE	MA2

BPM	0	0	165.000
MET	0	0	4	4

HLD	1	0	0	384
HLD	2	0	7	384
HLD	3	0	1	384
HLD	4	0	6	192
TAP	5	0	2
TAP	5	96	2
TAP	5	192	5
TAP	5	288	5
TAP	6	0	3
TAP	6	96	3
TAP	6	192	4
TAP	6	288	4
TAP	7	0	3
TAP	7	96	2
TAP	7	192	1
TAP	7	288	0
TAP	8	0	4
TAP	8	96	5
TAP	8	192	6
TAP	8	288	7
STR	9	0	0
SI_	9	0	0	96	48	3
STR	9	192	7
SI_	9	192	7	96	48	4
TAP	10	0	1
TAP	10	96	6
TAP	10	192	3
TAP	10	192	4
BRK	10	288	0
TAP	11	0	0
TAP	11	96	0
TAP	11	192	4
TAP	11	288	4
TAP	12	0	2
TAP	12	96	2
TAP	12	192	6
TAP	12	288	6
TAP	13	0	7
TAP	13	96	7
TAP	13	192	3
TAP	13	288	3
TAP	14	0	5
TAP	14	96	5
TAP	14	192	1
TAP	14	288	1
TAP	15	0	3
TAP	15	96	2
TAP	15	96	4
TAP	15	192	3
TAP	15	288	2
TAP	15	288	4
TAP	16	0	4
TAP	16	96	3
TAP	16	96	5
TAP	16	192	4
TAP	16	288	3
TAP	16	288	5
TAP	17	0	3
TAP	17	96	1
TAP	17	96	5
TAP	17	192	7
TAP	17	288	1
TAP	17	288	5
TAP	18	0	6
TAP	18	96	4
TAP	18	192	2
BRK	18	288	0
TAP	19	0	5
HLD	19	96	4	192
TAP	20	0	2
HLD	20	96	3	192
TAP	21	0	2
TAP	21	0	5
HLD	21	96	3	192
HLD	21	96	4	192
TAP	22	0	0
TAP	22	0	7
TAP	22	96	1
TAP	22	96	6
TAP	22	192	2
TAP	22	192	5
BRK	22	288	3
BRK	22	288	4
TAP	23	0	1
HLD	23	96	3	192
TAP	24	0	6
HLD	24	96	4	192
TAP	25	0	3
TAP	25	0	4
HLD	25	96	2	192
HLD	25	96	5	192
TAP	26	0	3
TAP	26	0	4
TAP	26	96	2
TAP	26	96	5
TAP	26	192	1
TAP	26	192	6
BRK	26	288	0
BRK	26	288	7
STR	27	0	1
SCR	27	0	1	96	144	4
STR	28	0	6
SCL	28	0	6	96	144	3
STR	29	0	1
SV_	29	0	1	96	144	4
STR	30	0	6
SV_	30	0	6	96	144	3
HLD	31	0	0	192
HLD	32	0	7	192
TAP	33	0	2
TAP	33	0	3
TAP	33	96	2
TAP	33	96	3
TAP	33	192	2
TAP	33	192	3
TAP	33	288	1
TAP	33	288	4
TAP	34	0	4
TAP	34	0	5
TAP	34	96	4
TAP	34	96	5
TAP	34	192	4
TAP	34	192	5
TAP	34	288	3
TAP	34	288	6
TAP	35	0	1
TAP	35	0	6
BRK	35	192	0
BRK	35	288	0
HLD	36	0	1	96
TAP	36	96	3
HLD	36	192	6	96
TAP	36	288	4
TAP	37	0	0
TAP	37	0	7
TAP	37	96	0
TAP	37	96	7
TAP	37	192	1
TAP	37	192	6
TAP	38	0	0
TAP	38	96	1
TAP	38	192	2
TAP	38	288	3
TAP	39	0	4
TAP	39	96	5
TAP	39	192	6
TAP	39	288	7
HLD	40	0	1	96
TAP	40	96	3
HLD	40	192	6	96
TAP	40	288	4
TAP	41	0	0
TAP	41	0	7
TAP	41	96	0
TAP	41	96	7
TAP	41	192	1
TAP	41	192	6
TAP	42	0	3
TAP	42	96	4
TAP	42	192	1
TAP	42	288	6
TAP	43	0	2
TAP	43	96	5
TAP	43	192	0
BRK	43	288	7
TAP	44	0	0
TAP	44	0	1
TAP	44	96	0
TAP	44	96	7
TAP	44	192	6
TAP	44	192	7
TAP	45	0	2
TAP	45	0	6
TAP	45	96	1
TAP	45	96	5
TAP	45	192	0
TAP	45	192	4
TAP	46	0	2
TAP	46	0	3
TAP	46	96	3
TAP	46	96	4
TAP	46	192	4
TAP	46	192	5
TAP	47	0	1
TAP	47	0	5
TAP	47	96	2
TAP	47	96	6
TAP	47	192	3
TAP	47	192	7
STR	48	0	0
SI_	48	0	0	96	48	3
STR	48	192	7
SI_	48	192	7	96	48	4
STR	49	0	0
SCR	49	0	0	96	48	2
STR	49	192	7
SCL	49	192	7	96	48	5
HLD	50	0	1	144
HLD	50	288	6	144
TAP	51	192	0
TAP	51	192	7
BRK	51	288	0
BRK	51	288	7
TAP	52	0	0
TAP	52	0	4
TAP	52	96	1
TAP	52	96	5
TAP	52	192	2
TAP	52	192	6
TAP	52	288	3
TAP	52	288	7
TAP	53	0	1
TAP	53	0	4
TAP	53	96	2
TAP	53	96	3
BRK	53	192	0
BRK	53	192	5
TAP	54	0	5
TAP	54	96	3
TAP	54	192	4
TAP	54	288	2
TAP	55	0	5
TAP	55	96	3
TAP	55	192	4
TAP	55	288	2
TAP	56	0	3
TAP	56	0	7
TAP	56	96	2
TAP	56	96	6
TAP	56	192	1
TAP	56	192	5
TAP	56	288	0
TAP	56	288	4
TAP	57	0	3
TAP	57	0	6
TAP	57	96	4
TAP	57	96	5
BRK	57	192	2
BRK	57	192	7
TAP	58	0	1
TAP	58	96	7
TAP	58	192	0
TAP	58	288	6
TAP	59	0	0
TAP	59	96	7
TAP	59	192	1
BRK	59	288	6
TAP	60	0	0
TAP	60	96	2
TAP	60	96	6
TAP	60	192	0
TAP	61	0	7
TAP	61	96	1
TAP	61	96	5
TAP	61	192	7
TAP	62	0	0
TAP	62	0	1
TAP	62	96	0
TAP	62	96	1
TAP	62	192	2
TAP	62	192	3
TAP	62	288	2
TAP	62	288	3
TAP	63	0	4
TAP	63	0	5
TAP	63	96	4
TAP	63	96	5
TAP	63	192	6
TAP	63	192	7
TAP	63	288	6
TAP	63	288	7
STR	64	0	0
SI_	64	0	0	96	48	4
STR	64	192	7
SI_	64	192	7	96	48	3
STR	65	0	1
SI_	65	0	1	96	48	4
STR	65	192	6
SI_	65	192	6	96	48	3
HLD	66	0	1	144
HLD	66	288	7	144
TAP	67	192	2
TAP	67	192	6
TAP	67	288	3
TAP	67	288	5
HLD	68	0	5	144
HLD	68	288	0	144
TAP	69	192	1
TAP	69	192	4
TAP	69	288	2
TAP	69	288	3
STR	70	0	6
SCL	70	0	6	96	288	3
STR	70	0	7
SCR	70	0	7	96	288	2
TAP	72	0	2
TAP	72	96	2
TAP	72	96	3
TAP	72	192	5
TAP	72	288	4
TAP	72	288	5
TAP	73	0	1
TAP	73	96	2
TAP	73	96	3
TAP	73	192	6
TAP	73	288	4
TAP	73	288	5
TAP	74	0	2
TAP	74	96	3
TAP	74	192	2
TAP	74	288	3
TAP	75	0	5
TAP	75	96	4
TAP	75	192	5
TAP	75	288	4
STR	76	0	3
SI_	76	0	3	96	48	0
STR	76	192	4
SI_	76	192	4	96	48	7
STR	77	0	3
SCL	77	0	3	96	48	1
STR	77	192	4
SCR	77	192	4	96	48	6
HLD	78	1	0	192
TAP	78	192	7
TAP	78	288	7
BRK	79	0	1
BRK	79	48	1

T_REC_TAP	245
T_REC_BRK	18
T_REC_XTP	0
T_REC_HLD	25
T_REC_XHO	0
T_REC_STR	20
T_REC_BST	0
T_REC_XST	0
T_REC_TTP	0
T_REC_THO	0
T_REC_SLD	20
T_REC_ALL	328
T_NUM_TAP	265
T_NUM_BRK	18
T_NUM_HLD	25
T_NUM_SLD	20
T_NUM_ALL	328
T_JUDGE_TAP	283
T_JUDGE_HLD	98
T_JUDGE_SLD	20
T_JUDGE_ALL	401
TTM_EACHPAIRS	81
TTM_SCR_TAP	132500
TTM_SCR_BRK	46800
TTM_SCR_HLD	25000
TTM_SCR_SLD	30000
TTM_SCR_ALL	234300
TTM_SCR_S	225550
TTM_SCR_SS	232500
TTM_RAT_ACV	10077

