VERSION	0.00.00	1.03.00
FES_MODE	0
BPM_DEF	165.000	165.000	165.000	165.000
MET_DEF	4	4
RESOLUTION	384
CLK_DEF	384
COMPATIBLE_CODE	MA2

BPM	0	0	165.000
MET	0	0	4	4

TAP	5	96	2
TAP	5	288	2
TAP	6	96	5
TAP	6	288	5
TAP	7	96	0
TAP	7	96	7
TAP	7	288	2
TAP	7	288	5
TAP	8	96	0
TAP	8	192	0
TAP	9	0	0
TAP	9	192	0
STR	10	0	0
SI_	10	0	0	96	192	3
TAP	11	0	4
TAP	11	96	3
TAP	11	192	4
TAP	12	0	6
TAP	12	192	1
TAP	13	0	0
TAP	13	0	6
TAP	13	192	1
TAP	13	192	7
TAP	14	0	0
TAP	14	0	6
TAP	14	192	1
TAP	14	192	7
TAP	15	0	0
TAP	15	192	7
TAP	16	0	1
TAP	16	0	6
TAP	17	0	1
TAP	17	0	6
TAP	17	192	1
TAP	17	192	6
TAP	18	0	0
TAP	18	0	7
TAP	18	192	2
TAP	18	192	5
HLD	19	0	3	192
HLD	19	0	4	192
HLD	20	0	1	192
TAP	21	0	0
TAP	21	0	7
TAP	21	192	0
TAP	21	192	7
TAP	22	0	1
TAP	22	192	6
TAP	23	0	1
TAP	23	96	1
TAP	23	192	1
TAP	24	0	0
TAP	24	192	0
TAP	25	0	2
TAP	25	0	3
TAP	25	192	2
TAP	25	192	3
TAP	26	0	2
TAP	26	192	5
STR	27	0	4
SI_	27	0	4	96	192	7
STR	28	0	3
SI_	28	0	3	96	192	0
STR	29	0	4
SI_	29	0	4	96	192	7
STR	30	0	3
SI_	30	0	3	96	192	0
TAP	31	96	3
TAP	31	96	5
TAP	31	288	3
TAP	31	288	5
TAP	32	96	2
TAP	32	96	4
TAP	32	288	2
TAP	32	288	4
TAP	33	96	2
TAP	33	96	5
TAP	33	288	2
TAP	33	288	5
STR	34	96	5
SCR	34	96	5	96	192	0
TAP	36	0	0
TAP	36	96	0
TAP	36	192	0
TAP	37	0	0
TAP	37	192	0
TAP	37	192	5
TAP	38	0	3
TAP	38	192	4
STR	39	0	0
SI_	39	0	0	96	192	3
STR	39	0	7
SI_	39	0	7	96	192	4
TAP	40	0	0
TAP	40	96	0
TAP	40	192	0
TAP	41	0	0
TAP	41	192	0
TAP	41	192	5
TAP	42	0	3
TAP	42	192	4
STR	43	0	0
SI_	43	0	0	96	192	3
STR	43	0	7
SI_	43	0	7	96	192	4
TAP	44	0	4
TAP	44	96	3
TAP	44	192	3
TAP	45	0	1
TAP	45	192	1
TAP	46	0	3
TAP	46	96	4
TAP	46	192	4
TAP	47	0	5
TAP	47	192	5
TAP	48	0	7
TAP	48	192	0
TAP	49	0	1
TAP	50	0	0
TAP	50	288	0
BRK	51	192	0
TAP	52	0	0
TAP	52	96	0
TAP	52	192	0
TAP	53	0	0
TAP	53	192	0
TAP	53	192	5
TAP	54	0	3
TAP	54	192	4
STR	55	0	0
SI_	55	0	0	96	192	3
STR	55	0	7
SI_	55	0	7	96	192	4
TAP	56	0	0
TAP	56	96	0
TAP	56	192	0
TAP	57	0	0
TAP	57	192	0
TAP	57	192	5
TAP	58	0	3
TAP	58	192	4
STR	59	0	0
SI_	59	0	0	96	192	3
STR	59	0	7
SI_	59	0	7	96	192	4
TAP	60	0	4
TAP	60	96	3
TAP	60	192	3
TAP	61	0	1
TAP	61	192	1
TAP	62	0	3
TAP	62	96	4
TAP	62	192	4
TAP	63	0	5
TAP	63	192	5
TAP	64	0	7
TAP	64	192	0
TAP	65	0	1
TAP	66	0	0
TAP	66	288	0
BRK	67	192	0
TAP	68	0	0
TAP	68	288	0
BRK	69	192	1
TAP	70	0	4
TAP	70	96	3
TAP	70	192	4
TAP	71	0	6
TAP	71	192	1
TAP	72	0	0
TAP	72	0	6
TAP	72	192	1
TAP	72	192	7
TAP	73	0	0
TAP	73	0	6
TAP	73	192	1
TAP	73	192	7
TAP	74	0	0
TAP	74	192	7
TAP	75	0	1
TAP	75	0	6
TAP	76	0	1
TAP	76	0	6
TAP	76	192	1
TAP	76	192	6
TAP	77	0	0
TAP	77	0	7
TAP	77	192	2
TAP	77	192	5
TAP	78	0	4
TAP	78	192	3
BRK	79	0	1

T_REC_TAP	157
T_REC_BRK	4
T_REC_XTP	0
T_REC_HLD	3
T_REC_XHO	0
T_REC_STR	14
T_REC_BST	0
T_REC_XST	0
T_REC_TTP	0
T_REC_THO	0
T_REC_SLD	14
T_REC_ALL	192
T_NUM_TAP	171
T_NUM_BRK	4
T_NUM_HLD	3
T_NUM_SLD	14
T_NUM_ALL	192
T_JUDGE_TAP	175
T_JUDGE_HLD	12
T_JUDGE_SLD	14
T_JUDGE_ALL	201
TTM_EACHPAIRS	39
TTM_SCR_TAP	85500
TTM_SCR_BRK	10400
TTM_SCR_HLD	3000
TTM_SCR_SLD	21000
TTM_SCR_ALL	119900
TTM_SCR_S	115950
TTM_SCR_SS	119500
TTM_RAT_ACV	10033

