VERSION	0.00.00	1.03.00
FES_MODE	0
BPM_DEF	160.000	160.000	160.000	160.000
MET_DEF	4	4
RESOLUTION	384
CLK_DEF	384
COMPATIBLE_CODE	MA2

BPM	0	0	160.000
MET	0	0	4	4

TAP	1	0	3
TAP	1	48	4
TAP	1	96	2
TAP	1	96	5
TAP	1	144	3
TAP	1	168	4
TAP	1	216	4
TAP	1	240	3
TAP	1	288	5
TAP	1	336	2
TAP	2	0	3
TAP	2	48	2
TAP	2	96	4
TAP	2	144	2
TAP	2	168	3
TAP	2	216	3
TAP	2	240	2
TAP	2	288	4
STR	3	0	0
SV_	3	0	0	96	48	3
STR	3	0	6
SV_	3	0	6	96	48	3
STR	3	192	1
SV_	3	192	1	96	48	4
STR	3	192	7
SV_	3	192	7	96	48	4
STR	4	0	3
SCL	4	0	3	96	144	7
TAP	4	288	4
TAP	4	336	5
TAP	5	0	6
HLD	5	48	7	96
HLD	5	144	6	96
TAP	5	240	5
TAP	5	288	5
TAP	6	0	4
TAP	6	48	5
TAP	6	96	3
TAP	6	144	5
TAP	6	168	4
TAP	6	216	4
TAP	6	240	5
TAP	6	288	3
STR	7	0	1
SV_	7	0	1	96	48	4
STR	7	0	7
SV_	7	0	7	96	48	4
STR	7	192	0
SV_	7	192	0	96	48	3
STR	7	192	6
SV_	7	192	6	96	48	3
STR	8	0	4
SCR	8	0	4	96	144	0
TAP	8	288	3
TAP	8	336	2
TAP	9	0	1
HLD	9	48	0	96
HLD	9	144	1	96
TAP	9	240	2
TAP	9	288	3
BRK	9	336	2
TAP	10	48	1
TAP	10	96	2
HLD	10	144	3	96
HLD	10	240	4	96
TAP	10	336	5
TAP	11	0	6
TAP	11	48	7
TAP	11	96	0
STR	11	144	1
SCL	11	144	1	96	96	6
STR	11	144	5
SUR	11	144	5	96	96	2
TAP	12	48	6
TAP	12	96	5
HLD	12	144	4	96
HLD	12	240	3	96
TAP	12	336	2
STR	13	48	0
SI_	13	48	0	96	48	4
TAP	13	96	0
STR	13	144	6
SI_	13	144	6	96	48	2
TAP	13	240	7
TAP	13	336	1
TAP	13	336	5
TAP	14	48	4
TAP	14	96	3
TAP	14	144	5
TAP	14	240	3
TAP	14	288	4
TAP	14	336	2
TAP	15	0	3
TAP	15	48	1
TAP	15	96	5
TAP	15	144	3
TAP	15	240	4
TAP	15	288	5
STR	15	336	6
SI_	15	336	6	96	48	2
STR	16	48	1
SI_	16	48	1	96	48	5
STR	16	144	6
SCR	16	144	6	96	96	1
TAP	16	240	4
TAP	16	288	3
STR	16	336	2
SCL	16	336	2	96	144	5
TAP	17	240	7
TAP	17	288	0
TAP	17	336	1
STR	18	0	2
SCR	18	0	2	96	72	5
TAP	18	144	0
TAP	18	192	0
TAP	18	288	1
TAP	18	288	7
STR	19	0	5
SCL	19	0	5	96	72	2
TAP	19	144	7
TAP	19	192	7
TAP	19	288	0
TAP	19	288	6
STR	20	0	2
SCL	20	0	2	96	72	6
TAP	20	144	3
TAP	20	192	3
TAP	20	288	1
TAP	20	288	7
STR	21	0	5
SCR	21	0	5	96	72	1
TAP	21	144	4
TAP	21	192	4
TAP	21	288	0
TAP	21	288	6
STR	22	0	1
SUR	22	0	1	96	144	4
TAP	22	144	7
TAP	22	240	6
TAP	22	336	5
TAP	22	336	7
STR	23	0	6
SUL	23	0	6	96	144	3
TAP	23	144	0
TAP	23	240	1
TAP	23	336	0
TAP	23	336	2
TAP	24	0	1
TAP	24	48	4
TAP	24	96	3
TAP	24	144	6
TAP	24	192	2
TAP	24	240	4
TAP	24	288	1
TAP	24	336	6
BRK	25	0	0
BRK	25	0	7
TAP	25	144	1
TAP	25	192	3
TAP	25	240	5
TAP	25	288	7
TAP	25	336	0
STR	26	0	6
SI_	26	0	6	96	48	3
TAP	26	96	6
STR	26	144	7
SI_	26	144	7	96	48	2
TAP	26	240	7
TAP	26	288	5
HLD	26	336	3	96
TAP	27	48	7
TAP	27	96	1
TAP	27	144	3
TAP	27	192	5
BRK	27	240	0
BRK	27	288	0
HLD	28	0	6	96
TAP	28	96	5
HLD	28	144	1	96
TAP	28	240	2
TAP	28	288	3
TAP	28	336	4
TAP	29	0	5
STR	29	48	6
SI_	29	48	6	96	48	1
STR	29	144	2
SI_	29	144	2	96	48	5
TAP	29	240	6
TAP	29	288	6
TAP	29	336	6
STR	30	0	1
SI_	30	0	1	96	48	4
TAP	30	96	1
STR	30	144	0
SI_	30	144	0	96	48	5
TAP	30	240	0
TAP	30	288	2
HLD	30	336	4	96
TAP	31	48	0
TAP	31	96	6
TAP	31	144	4
TAP	31	192	2
TAP	31	240	7
TAP	31	288	1
TAP	31	336	3
STR	32	0	2
SUL	32	0	2	96	96	4
STR	32	0	5
SCR	32	0	5	96	96	1
TAP	32	288	3
TAP	32	288	7
TAP	32	336	2
TAP	32	336	6
HLD	33	0	1	96
HLD	33	0	5	96
STR	33	144	0
SCR	33	144	0	96	48	3
STR	33	144	4
SCR	33	144	4	96	48	7
TAP	34	0	7
TAP	34	48	2
TAP	34	96	7
TAP	34	144	1
TAP	34	168	0
TAP	34	216	0
TAP	34	240	1
TAP	34	288	7
STR	35	0	1
SV_	35	0	1	96	48	4
TAP	35	0	5
TAP	35	96	0
TAP	35	192	3
STR	35	192	7
SV_	35	192	7	96	48	4
TAP	35	288	0
STR	36	0	3
SCL	36	0	3	96	192	0
STR	36	0	7
SUR	36	0	7	96	192	4
TAP	37	0	1
TAP	37	0	5
TAP	37	96	2
TAP	37	96	6
TAP	37	144	3
TAP	37	144	7
TAP	37	240	3
TAP	37	240	7
TAP	37	288	2
TAP	37	288	6
TAP	37	336	1
TAP	37	336	5
TAP	38	0	0
TAP	38	48	5
TAP	38	96	0
TAP	38	144	6
TAP	38	168	7
TAP	38	216	7
TAP	38	240	6
TAP	38	288	0
TAP	39	0	2
STR	39	0	6
SV_	39	0	6	96	48	3
TAP	39	96	7
STR	39	192	0
SV_	39	192	0	96	48	3
TAP	39	192	4
TAP	39	288	7
STR	40	0	0
SUL	40	0	0	96	96	3
STR	40	0	4
SCR	40	0	4	96	96	7
STR	40	288	1
SI_	40	288	1	96	48	4
STR	40	336	6
SI_	40	336	6	96	48	3
TAP	41	0	1
TAP	41	48	6
STR	41	144	0
SSL	41	144	0	96	96	4
BRK	41	240	6
BRK	41	288	6
STR	42	0	7
SCL	42	0	7	96	48	5
TAP	42	96	7
STR	42	144	1
SCR	42	144	1	96	48	3
TAP	42	240	1
TAP	42	288	5
HLD	42	336	0	96
TAP	43	48	4
TAP	43	96	2
TAP	43	144	2
TAP	43	192	0
TAP	43	192	6
BRK	43	240	7
BRK	43	288	7
HLD	44	0	1	96
TAP	44	0	3
TAP	44	96	7
TAP	44	144	4
HLD	44	144	6	96
TAP	44	240	0
TAP	44	288	6
TAP	44	336	2
TAP	45	0	4
STR	45	48	4
SCR	45	48	4	96	48	7
STR	45	144	0
SCR	45	144	0	96	48	3
TAP	45	240	5
TAP	45	288	6
TAP	45	336	7
STR	46	0	0
SCR	46	0	0	96	48	2
TAP	46	96	0
STR	46	144	6
SCL	46	144	6	96	48	4
TAP	46	240	6
TAP	46	288	1
HLD	46	336	3	96
TAP	47	48	0
TAP	47	96	5
TAP	47	144	1
TAP	47	192	6
TAP	47	240	2
TAP	47	288	7
TAP	47	336	3
STR	48	0	0
SSL	48	0	0	96	96	4
TAP	48	288	1
TAP	48	288	7
TAP	48	336	2
TAP	48	336	6
TAP	49	0	3
TAP	49	0	5
STR	49	48	4
SI_	49	48	4	96	48	0
TAP	49	240	4
TAP	49	288	4
TAP	49	336	4
STR	50	0	3
SCL	50	0	3	96	48	0
TAP	50	96	3
STR	50	144	5
SCR	50	144	5	96	48	0
TAP	50	240	5
TAP	50	288	3
HLD	50	336	3	96
TAP	51	48	7
TAP	51	96	0
TAP	51	96	4
TAP	51	144	1
TAP	51	144	5
TAP	51	192	2
TAP	51	192	6
BRK	51	240	3
BRK	51	240	7
BRK	51	288	3
BRK	51	288	7
HLD	52	0	3	96
TAP	52	0	4
TAP	52	96	1
TAP	52	144	3
HLD	52	144	4	96
TAP	52	240	6
TAP	52	288	6
TAP	52	336	5
TAP	52	336	7
TAP	53	0	0
STR	53	48	0
SUL	53	48	0	96	48	3
STR	53	144	4
SUL	53	144	4	96	48	7
TAP	53	240	1
TAP	53	288	2
TAP	53	336	3
STR	54	0	4
SCR	54	0	4	96	48	7
TAP	54	96	4
STR	54	144	2
SCL	54	144	2	96	48	7
TAP	54	240	2
TAP	54	288	4
HLD	54	336	4	96
TAP	55	48	0
TAP	55	96	1
TAP	55	96	5
TAP	55	144	2
TAP	55	144	6
TAP	55	192	3
TAP	55	192	7
TAP	55	240	3
TAP	55	240	6
TAP	55	288	3
TAP	55	288	5
TAP	55	336	3
TAP	55	336	4
STR	56	0	2
SCL	56	0	2	96	96	6
STR	56	0	5
SUL	56	0	5	96	96	3
TAP	56	288	4
TAP	56	288	7
TAP	56	336	0
TAP	56	336	5
TAP	57	0	1
TAP	57	0	6
TAP	57	48	2
TAP	57	48	7
TAP	57	144	3
TAP	57	192	3
TAP	57	240	6
TAP	57	288	6
TAP	57	336	4
TAP	58	0	5
TAP	58	48	3
TAP	58	96	4
TAP	58	144	2
TAP	58	168	3
TAP	58	216	3
TAP	58	240	2
TAP	58	288	5
TAP	58	336	0
STR	59	0	1
SV_	59	0	1	96	48	4
TAP	59	0	6
TAP	59	96	0
TAP	59	96	1
TAP	59	192	2
STR	59	192	7
SV_	59	192	7	96	48	4
TAP	59	288	0
TAP	59	288	7
STR	60	0	1
SUR	60	0	1	96	144	3
TAP	60	288	4
TAP	60	336	5
TAP	61	0	6
HLD	61	48	7	96
HLD	61	144	0	97
TAP	61	240	1
TAP	61	288	1
TAP	62	0	2
TAP	62	48	4
TAP	62	96	3
TAP	62	144	5
TAP	62	168	4
TAP	62	216	4
TAP	62	240	5
TAP	62	288	2
TAP	62	336	7
TAP	63	0	1
STR	63	0	6
SV_	63	0	6	96	48	3
TAP	63	96	6
TAP	63	96	7
STR	63	192	0
SV_	63	192	0	96	48	3
TAP	63	192	5
TAP	63	288	0
TAP	63	288	7
STR	64	0	6
SUL	64	0	6	96	144	4
TAP	64	288	3
TAP	64	336	2
TAP	65	0	1
HLD	65	48	0	96
HLD	65	144	7	96
TAP	65	240	0
TAP	65	288	6
BRK	65	336	7

T_REC_TAP	297
T_REC_BRK	14
T_REC_XTP	0
T_REC_HLD	26
T_REC_XHO	0
T_REC_STR	67
T_REC_BST	0
T_REC_XST	0
T_REC_TTP	0
T_REC_THO	0
T_REC_SLD	67
T_REC_ALL	471
T_NUM_TAP	364
T_NUM_BRK	14
T_NUM_HLD	26
T_NUM_SLD	67
T_NUM_ALL	471
T_JUDGE_TAP	378
T_JUDGE_HLD	53
T_JUDGE_SLD	67
T_JUDGE_ALL	498
TTM_EACHPAIRS	64
TTM_SCR_TAP	182000
TTM_SCR_BRK	36400
TTM_SCR_HLD	26000
TTM_SCR_SLD	100500
TTM_SCR_ALL	344900
TTM_SCR_S	333200
TTM_SCR_SS	343500
TTM_RAT_ACV	10040

