VERSION	0.00.00	1.03.00
FES_MODE	0
BPM_DEF	160.000	160.000	160.000	160.000
MET_DEF	4	4
RESOLUTION	384
CLK_DEF	384
COMPATIBLE_CODE	MA2

BPM	0	0	160.000
MET	0	0	4	4

TAP	2	0	2
TAP	2	96	1
TAP	2	96	3
TAP	2	192	5
TAP	2	288	4
TAP	2	288	6
HLD	3	0	1	96
TAP	3	96	2
HLD	3	192	6	96
TAP	3	288	5
STR	4	0	6
SCR	4	0	6	96	96	2
TAP	4	288	0
TAP	5	0	6
TAP	5	96	5
TAP	5	96	7
TAP	5	192	1
TAP	5	288	0
TAP	5	288	2
TAP	6	0	5
TAP	6	96	4
TAP	6	96	6
TAP	6	192	2
TAP	6	288	1
TAP	6	288	3
HLD	7	0	6	96
TAP	7	96	5
HLD	7	192	1	96
TAP	7	288	2
STR	8	0	1
SCL	8	0	1	96	96	5
TAP	8	288	7
TAP	9	0	1
TAP	9	96	0
TAP	9	96	2
TAP	9	192	6
TAP	9	288	5
TAP	9	288	7
TAP	10	0	3
TAP	10	96	1
TAP	10	96	5
TAP	10	192	4
TAP	10	288	2
TAP	10	288	6
STR	11	0	1
SI_	11	0	1	96	72	6
STR	11	192	7
SUR	11	192	7	96	72	4
TAP	12	0	2
TAP	12	96	1
TAP	12	96	4
TAP	12	192	5
TAP	12	288	3
TAP	12	288	6
STR	13	0	0
SI_	13	0	0	96	96	3
STR	13	0	7
SI_	13	0	7	96	96	4
TAP	14	0	3
TAP	14	96	1
TAP	14	96	5
TAP	14	192	4
TAP	14	288	2
TAP	14	288	6
STR	15	0	1
SI_	15	0	1	96	72	5
STR	15	192	6
SI_	15	192	6	96	72	2
TAP	16	0	0
TAP	16	96	2
TAP	16	96	6
TAP	16	192	7
TAP	16	288	1
TAP	16	288	5
STR	17	0	3
SCL	17	0	3	96	96	0
STR	17	0	4
SCR	17	0	4	96	96	7
HLD	18	0	2	144
TAP	18	144	3
TAP	18	192	3
TAP	18	288	0
TAP	18	288	7
TAP	19	0	3
TAP	19	0	5
TAP	19	48	3
TAP	19	48	5
TAP	19	144	2
TAP	19	144	4
TAP	19	192	2
TAP	19	192	4
TAP	19	288	0
TAP	19	288	7
HLD	20	0	5	144
TAP	20	144	4
TAP	20	192	4
TAP	20	288	0
TAP	20	288	7
TAP	21	0	2
TAP	21	0	4
TAP	21	48	2
TAP	21	48	4
TAP	21	144	3
TAP	21	144	5
TAP	21	192	3
TAP	21	192	5
TAP	21	288	0
TAP	21	288	7
TAP	22	0	0
HLD	22	0	2	288
TAP	22	96	7
TAP	22	192	6
TAP	22	288	5
HLD	23	0	5	288
TAP	23	0	7
TAP	23	96	0
TAP	23	192	1
TAP	23	288	2
HLD	24	0	2	96
HLD	24	0	6	96
STR	24	192	1
SCR	24	192	1	96	96	4
STR	24	192	5
SCR	24	192	5	96	96	0
TAP	25	192	3
TAP	25	192	4
TAP	25	288	3
TAP	25	288	4
TAP	26	0	2
TAP	26	0	3
TAP	26	96	6
TAP	26	96	7
TAP	26	192	4
TAP	26	192	5
TAP	26	288	0
TAP	26	288	1
TAP	27	0	2
TAP	27	0	4
TAP	27	96	3
TAP	27	96	5
BRK	27	192	1
BRK	27	192	6
HLD	28	0	0	96
TAP	28	96	1
HLD	28	192	6	96
TAP	28	288	5
HLD	29	0	2	96
HLD	29	96	3	96
HLD	29	192	4	96
TAP	29	288	5
TAP	30	0	4
TAP	30	0	5
TAP	30	96	0
TAP	30	96	1
TAP	30	192	2
TAP	30	192	3
TAP	30	288	6
TAP	30	288	7
TAP	31	0	3
TAP	31	0	5
TAP	31	96	2
TAP	31	96	4
BRK	31	192	1
BRK	31	192	6
TAP	31	288	2
TAP	31	288	5
STR	32	0	0
SCR	32	0	0	96	96	3
STR	32	0	7
SCL	32	0	7	96	96	4
TAP	32	288	0
TAP	32	288	7
TAP	33	0	1
TAP	33	96	3
TAP	33	96	5
TAP	33	192	6
TAP	33	288	2
TAP	33	288	4
STR	34	0	1
SUL	34	0	1	96	144	3
STR	35	0	5
SUL	35	0	5	96	144	7
STR	36	0	0
SUL	36	0	0	96	192	7
TAP	37	0	6
TAP	37	96	4
TAP	37	96	5
TAP	37	144	4
TAP	37	144	5
TAP	37	240	2
TAP	37	240	3
TAP	37	288	2
TAP	37	288	3
STR	38	0	2
SUR	38	0	2	96	144	0
STR	39	0	6
SUR	39	0	6	96	144	4
STR	40	0	3
SUR	40	0	3	96	192	4
TAP	41	0	5
TAP	41	96	6
TAP	41	96	7
TAP	41	144	6
TAP	41	144	7
TAP	41	240	0
TAP	41	240	1
TAP	41	288	0
TAP	41	288	1
TAP	42	0	2
TAP	42	0	3
TAP	42	96	0
TAP	42	96	6
TAP	42	144	0
TAP	42	144	6
TAP	42	240	1
TAP	42	240	7
TAP	42	288	1
TAP	42	288	7
TAP	43	0	0
TAP	43	48	7
TAP	43	96	0
BRK	43	192	1
BRK	43	192	6
HLD	44	0	2	96
TAP	44	96	0
HLD	44	192	5	96
TAP	44	288	7
HLD	45	0	0	96
HLD	45	96	2	96
HLD	45	192	4	96
TAP	45	288	6
TAP	46	0	4
TAP	46	0	5
TAP	46	96	1
TAP	46	96	7
TAP	46	144	1
TAP	46	144	7
TAP	46	240	0
TAP	46	240	6
TAP	46	288	0
TAP	46	288	6
TAP	47	0	7
TAP	47	48	0
TAP	47	96	7
BRK	47	192	1
BRK	47	192	6
TAP	47	288	2
TAP	47	288	5
STR	48	0	0
SCL	48	0	0	96	96	5
STR	48	0	1
SCR	48	0	1	96	96	4
TAP	48	288	0
TAP	48	288	7
TAP	49	0	1
TAP	49	96	3
TAP	49	96	5
TAP	49	192	6
TAP	49	288	2
TAP	49	288	4
TAP	50	0	1
TAP	50	0	5
TAP	50	96	3
TAP	50	96	7
TAP	50	144	3
TAP	50	144	7
TAP	50	240	0
TAP	50	240	4
TAP	50	288	0
TAP	50	288	4
TAP	51	0	2
TAP	51	48	4
TAP	51	96	3
BRK	51	192	1
BRK	51	192	6
TAP	52	0	4
HLD	52	0	5	96
TAP	52	96	7
HLD	52	192	2	96
TAP	52	192	3
TAP	52	288	0
HLD	53	0	7	96
HLD	53	96	5	96
HLD	53	192	3	96
TAP	53	288	1
TAP	54	0	2
TAP	54	0	6
TAP	54	96	0
TAP	54	96	4
TAP	54	144	0
TAP	54	144	4
TAP	54	240	3
TAP	54	240	7
TAP	54	288	3
TAP	54	288	7
TAP	55	0	5
TAP	55	48	3
TAP	55	96	4
BRK	55	192	1
BRK	55	192	6
TAP	55	288	2
TAP	55	288	5
STR	56	0	6
SCL	56	0	6	96	96	3
STR	56	0	7
SCR	56	0	7	96	96	2
TAP	56	288	0
TAP	56	288	7
TAP	57	0	2
TAP	57	96	3
TAP	57	96	6
TAP	57	192	5
TAP	57	288	1
TAP	57	288	4
STR	58	0	2
SCL	58	0	2	96	144	7
TAP	59	0	3
HLD	59	0	5	96
TAP	59	96	6
HLD	59	192	1	96
TAP	59	192	3
TAP	59	288	0
STR	60	0	7
SCL	60	0	7	96	144	2
TAP	61	0	1
TAP	61	96	0
TAP	61	96	3
TAP	61	192	6
TAP	61	288	4
TAP	61	288	7
TAP	62	0	2
TAP	62	0	3
TAP	62	96	1
TAP	62	96	4
TAP	62	192	4
TAP	62	192	5
TAP	62	288	3
TAP	62	288	6
HLD	63	0	2	96
TAP	63	0	4
TAP	63	96	1
TAP	63	192	4
HLD	63	192	6	96
TAP	63	288	7
STR	64	0	0
SCR	64	0	0	96	144	5
TAP	64	288	7
TAP	65	0	0
TAP	65	48	7
TAP	65	144	1
TAP	65	144	6
TAP	65	240	2
TAP	65	288	5
TAP	65	336	3

T_REC_TAP	259
T_REC_BRK	12
T_REC_XTP	0
T_REC_HLD	29
T_REC_XHO	0
T_REC_STR	27
T_REC_BST	0
T_REC_XST	0
T_REC_TTP	0
T_REC_THO	0
T_REC_SLD	27
T_REC_ALL	354
T_NUM_TAP	286
T_NUM_BRK	12
T_NUM_HLD	29
T_NUM_SLD	27
T_NUM_ALL	354
T_JUDGE_TAP	298
T_JUDGE_HLD	68
T_JUDGE_SLD	27
T_JUDGE_ALL	393
TTM_EACHPAIRS	110
TTM_SCR_TAP	143000
TTM_SCR_BRK	31200
TTM_SCR_HLD	29000
TTM_SCR_SLD	40500
TTM_SCR_ALL	243700
TTM_SCR_S	235250
TTM_SCR_SS	242500
TTM_RAT_ACV	10049

