VERSION	0.00.00	1.03.00
FES_MODE	0
BPM_DEF	160.000	160.000	160.000	160.000
MET_DEF	4	4
RESOLUTION	384
CLK_DEF	384
COMPATIBLE_CODE	MA2

BPM	0	0	160.000
MET	0	0	4	4

TAP	2	0	3
TAP	2	96	3
TAP	2	192	4
TAP	2	288	4
HLD	3	0	3	192
HLD	3	192	5	192
STR	4	0	4
SCL	4	0	4	96	192	1
TAP	5	0	0
TAP	5	96	7
TAP	5	192	6
TAP	5	288	5
TAP	6	0	4
TAP	6	96	4
TAP	6	192	3
TAP	6	288	3
HLD	7	0	4	192
HLD	7	192	2	192
STR	8	0	3
SCR	8	0	3	96	192	6
TAP	9	0	7
TAP	9	96	0
TAP	9	192	6
TAP	9	288	1
TAP	10	0	2
TAP	10	96	2
TAP	10	96	3
TAP	10	192	5
TAP	10	288	4
TAP	10	288	5
TAP	11	0	3
TAP	11	96	3
TAP	11	96	4
TAP	11	192	2
TAP	11	192	5
TAP	12	0	1
TAP	12	96	0
TAP	12	96	1
TAP	12	192	6
TAP	12	288	6
TAP	12	288	7
TAP	13	0	0
TAP	13	96	0
TAP	13	96	7
TAP	13	192	1
TAP	13	192	6
TAP	14	0	5
TAP	14	96	4
TAP	14	96	5
TAP	14	192	2
TAP	14	288	2
TAP	14	288	3
TAP	15	0	4
TAP	15	96	3
TAP	15	96	4
TAP	15	192	2
TAP	15	192	5
TAP	16	0	6
TAP	16	96	6
TAP	16	96	7
TAP	16	192	1
TAP	16	288	0
TAP	16	288	1
TAP	17	0	7
TAP	17	96	0
TAP	17	96	7
TAP	17	192	1
TAP	17	192	6
HLD	18	0	2	192
TAP	18	192	3
HLD	19	0	5	192
TAP	19	192	4
HLD	20	0	1	192
TAP	20	192	3
HLD	21	0	6	192
TAP	21	192	4
TAP	22	0	1
TAP	22	96	2
TAP	22	192	3
TAP	22	288	4
TAP	22	288	5
TAP	23	0	6
TAP	23	96	5
TAP	23	192	4
TAP	23	288	2
TAP	23	288	3
TAP	24	0	1
TAP	24	96	0
TAP	24	192	7
TAP	24	288	1
TAP	24	288	6
BRK	25	0	0
BRK	25	0	7
TAP	26	0	2
TAP	26	0	3
TAP	26	96	2
TAP	26	96	3
TAP	26	192	4
TAP	26	192	5
TAP	26	288	4
TAP	26	288	5
TAP	27	0	6
TAP	27	0	7
TAP	27	96	0
TAP	27	96	1
TAP	27	192	0
TAP	27	192	7
TAP	28	0	5
TAP	28	96	4
TAP	28	96	5
TAP	28	192	2
TAP	28	288	2
TAP	28	288	3
TAP	29	0	1
TAP	29	96	0
TAP	29	192	7
TAP	29	288	6
TAP	30	0	4
TAP	30	0	5
TAP	30	96	4
TAP	30	96	5
TAP	30	192	2
TAP	30	192	3
TAP	30	288	2
TAP	30	288	3
TAP	31	0	0
TAP	31	0	1
TAP	31	96	6
TAP	31	96	7
TAP	31	192	0
TAP	31	192	7
TAP	32	0	2
TAP	32	96	2
TAP	32	96	3
TAP	32	192	5
TAP	32	288	4
TAP	32	288	5
TAP	33	0	3
TAP	33	96	2
TAP	33	192	1
STR	33	288	0
SCL	33	288	0	96	288	4
HLD	35	0	4	192
HLD	35	192	2	192
STR	36	0	3
SCR	36	0	3	96	192	6
TAP	37	0	7
TAP	37	96	0
TAP	37	192	1
TAP	37	288	2
TAP	38	0	3
TAP	38	96	3
TAP	38	192	4
TAP	38	288	4
HLD	39	0	3	192
HLD	39	192	5	192
STR	40	0	4
SCL	40	0	4	96	192	1
TAP	41	0	0
TAP	41	96	7
TAP	41	192	6
TAP	41	288	5
TAP	42	0	4
TAP	42	0	5
TAP	42	96	4
TAP	42	96	5
TAP	42	192	2
TAP	42	192	3
TAP	42	288	2
TAP	42	288	3
TAP	43	0	0
TAP	43	0	1
TAP	43	96	6
TAP	43	96	7
TAP	43	192	0
TAP	43	192	7
TAP	44	0	2
TAP	44	96	2
TAP	44	96	3
TAP	44	192	5
TAP	44	288	4
TAP	44	288	5
TAP	45	0	6
TAP	45	96	7
TAP	45	192	0
TAP	45	288	1
TAP	46	0	2
TAP	46	0	3
TAP	46	96	2
TAP	46	96	3
TAP	46	192	4
TAP	46	192	5
TAP	46	288	4
TAP	46	288	5
TAP	47	0	6
TAP	47	0	7
TAP	47	96	0
TAP	47	96	1
TAP	47	192	0
TAP	47	192	7
TAP	48	0	5
TAP	48	96	4
TAP	48	96	5
TAP	48	192	2
TAP	48	288	2
TAP	48	288	3
TAP	49	0	1
TAP	49	96	0
TAP	49	192	7
TAP	49	288	6
TAP	50	0	0
TAP	50	0	1
TAP	50	96	0
TAP	50	96	1
TAP	50	192	6
TAP	50	192	7
TAP	50	288	6
TAP	50	288	7
TAP	51	0	4
TAP	51	0	5
TAP	51	96	2
TAP	51	96	3
BRK	51	192	1
BRK	51	192	7
TAP	52	0	2
TAP	52	96	1
TAP	52	96	3
TAP	52	192	5
TAP	52	288	4
TAP	52	288	6
TAP	53	0	3
TAP	53	96	2
TAP	53	192	1
TAP	53	288	0
TAP	54	0	6
TAP	54	0	7
TAP	54	96	6
TAP	54	96	7
TAP	54	192	0
TAP	54	192	1
TAP	54	288	0
TAP	54	288	1
TAP	55	0	2
TAP	55	0	3
TAP	55	96	4
TAP	55	96	5
BRK	55	192	0
BRK	55	192	6
TAP	56	0	5
TAP	56	96	4
TAP	56	96	6
TAP	56	192	2
TAP	56	288	1
TAP	56	288	3
TAP	57	0	4
TAP	57	96	5
TAP	57	192	6
STR	57	288	7
SCR	57	288	7	96	288	3
HLD	59	0	3	192
HLD	59	192	5	192
STR	60	0	4
SCL	60	0	4	96	192	1
TAP	61	0	0
TAP	61	96	0
TAP	61	96	7
TAP	61	192	1
TAP	61	192	6
TAP	61	288	1
TAP	61	288	6
TAP	62	0	5
TAP	62	96	4
TAP	62	96	5
TAP	62	192	2
TAP	62	288	2
TAP	62	288	3
HLD	63	0	4	192
HLD	63	192	2	192
STR	64	0	3
SCR	64	0	3	96	192	6
TAP	65	0	7
TAP	65	96	0
TAP	65	96	7
STR	65	192	1
SCR	65	192	1	96	96	3
STR	65	192	6
SCL	65	192	6	96	96	4

T_REC_TAP	245
T_REC_BRK	6
T_REC_XTP	0
T_REC_HLD	16
T_REC_XHO	0
T_REC_STR	10
T_REC_BST	0
T_REC_XST	0
T_REC_TTP	0
T_REC_THO	0
T_REC_SLD	10
T_REC_ALL	287
T_NUM_TAP	255
T_NUM_BRK	6
T_NUM_HLD	16
T_NUM_SLD	10
T_NUM_ALL	287
T_JUDGE_TAP	261
T_JUDGE_HLD	64
T_JUDGE_SLD	10
T_JUDGE_ALL	335
TTM_EACHPAIRS	81
TTM_SCR_TAP	127500
TTM_SCR_BRK	15600
TTM_SCR_HLD	16000
TTM_SCR_SLD	15000
TTM_SCR_ALL	174100
TTM_SCR_S	168300
TTM_SCR_SS	173500
TTM_RAT_ACV	10034

