VERSION	0.00.00	1.03.00
FES_MODE	0
BPM_DEF	160.000	160.000	160.000	160.000
MET_DEF	4	4
RESOLUTION	384
CLK_DEF	384
COMPATIBLE_CODE	MA2

BPM	0	0	160.000
MET	0	0	4	4

TAP	2	0	0
TAP	2	192	0
TAP	3	0	1
TAP	3	192	1
HLD	4	0	2	192
HLD	5	0	3	192
TAP	6	0	4
TAP	6	192	4
TAP	7	0	5
TAP	7	192	5
HLD	8	0	6	192
HLD	9	0	7	192
TAP	10	0	0
TAP	10	192	0
TAP	11	0	1
TAP	11	192	1
TAP	12	0	7
TAP	12	192	7
TAP	13	0	6
TAP	13	192	6
HLD	14	0	0	192
HLD	15	0	7	192
STR	16	0	0
SI_	16	0	0	96	288	3
TAP	18	0	5
TAP	18	192	5
TAP	19	0	4
TAP	19	0	5
TAP	19	192	4
TAP	19	192	5
TAP	20	0	2
TAP	20	192	2
TAP	21	0	2
TAP	21	0	3
TAP	21	192	2
TAP	21	192	3
TAP	22	0	4
TAP	22	96	4
TAP	22	192	4
TAP	23	0	3
TAP	23	96	3
TAP	23	192	3
STR	24	0	4
SI_	24	0	4	96	288	7
TAP	26	0	2
TAP	26	0	3
TAP	26	192	2
TAP	26	192	3
TAP	27	0	0
TAP	27	96	0
BRK	27	192	0
HLD	28	0	7	192
HLD	29	0	6	192
TAP	30	0	4
TAP	30	0	5
TAP	30	192	4
TAP	30	192	5
TAP	31	0	7
TAP	31	96	7
BRK	31	192	7
HLD	32	0	0	192
HLD	33	0	1	192
STR	34	0	2
SI_	34	0	2	96	288	7
STR	36	0	5
SI_	36	0	5	96	288	0
STR	38	0	0
SI_	38	0	0	96	288	3
STR	40	0	7
SI_	40	0	7	96	288	4
TAP	42	0	1
TAP	42	96	1
TAP	42	192	1
TAP	43	0	7
TAP	43	96	7
TAP	43	192	0
TAP	43	192	7
TAP	44	0	6
TAP	44	192	5
TAP	45	0	4
TAP	45	192	5
TAP	46	0	6
TAP	46	96	6
TAP	46	192	6
TAP	47	0	0
TAP	47	96	0
TAP	47	192	0
TAP	47	192	7
TAP	48	0	1
TAP	48	192	2
TAP	49	0	3
TAP	49	192	2
TAP	50	0	1
TAP	50	96	1
TAP	50	192	1
TAP	51	0	3
TAP	51	96	2
TAP	51	192	2
TAP	51	192	3
TAP	52	0	4
TAP	52	192	5
TAP	53	0	6
TAP	53	192	5
TAP	54	0	6
TAP	54	96	6
TAP	54	192	6
TAP	55	0	4
TAP	55	96	5
TAP	55	192	4
TAP	55	192	5
TAP	56	0	3
TAP	56	192	2
TAP	57	0	1
TAP	57	192	2
STR	58	0	3
SI_	58	0	3	96	288	7
TAP	60	0	6
TAP	60	96	6
TAP	60	192	6
TAP	61	0	7
TAP	61	96	7
TAP	61	192	7
TAP	62	0	0
TAP	62	96	0
TAP	62	192	0
TAP	63	0	1
TAP	63	96	1
TAP	63	192	1
TAP	64	0	0
TAP	64	96	0
TAP	64	192	0
TAP	65	0	7
TAP	65	96	7
BRK	65	192	7

T_REC_TAP	107
T_REC_BRK	3
T_REC_XTP	0
T_REC_HLD	10
T_REC_XHO	0
T_REC_STR	7
T_REC_BST	0
T_REC_XST	0
T_REC_TTP	0
T_REC_THO	0
T_REC_SLD	7
T_REC_ALL	134
T_NUM_TAP	114
T_NUM_BRK	3
T_NUM_HLD	10
T_NUM_SLD	7
T_NUM_ALL	134
T_JUDGE_TAP	117
T_JUDGE_HLD	40
T_JUDGE_SLD	7
T_JUDGE_ALL	164
TTM_EACHPAIRS	12
TTM_SCR_TAP	57000
TTM_SCR_BRK	7800
TTM_SCR_HLD	10000
TTM_SCR_SLD	10500
TTM_SCR_ALL	85300
TTM_SCR_S	82450
TTM_SCR_SS	85000
TTM_RAT_ACV	10035

