VERSION	0.00.00	1.03.00
FES_MODE	0
BPM_DEF	156.000	186.000	186.000	108.727
MET_DEF	4	4
RESOLUTION	384
CLK_DEF	384
COMPATIBLE_CODE	MA2

BPM	0	0	156.000
BPM	2	0	161.000
BPM	2	192	167.000
BPM	2	288	161.000
BPM	3	0	160.000
BPM	3	96	166.000
BPM	3	288	162.000
BPM	4	96	171.000
BPM	4	192	156.000
BPM	4	288	135.000
BPM	5	0	145.000
BPM	6	0	155.000
BPM	6	96	165.000
BPM	6	288	150.000
BPM	7	0	130.000
BPM	7	96	155.000
BPM	7	192	129.000
BPM	7	288	141.000
BPM	9	96	186.000
BPM	66	0	178.478
BPM	66	96	168.416
BPM	66	192	162.607
BPM	66	288	140.856
BPM	67	0	126.931
BPM	67	96	108.727
BPM	67	192	119.510
BPM	68	0	186.000
MET	0	0	4	4
MET	9	0	2	4
MET	9	192	4	4

TAP	2	0	3
TAP	3	0	4
TAP	4	0	5
TAP	4	192	4
TAP	5	0	3
TAP	5	192	2
TAP	5	288	3
TAP	6	0	4
TAP	6	192	5
TAP	6	288	4
TAP	7	0	3
TAP	7	144	2
TAP	7	168	3
STR	7	192	4
SUL	7	192	4	66	450	3
TAP	7	288	3
TAP	9	96	3
TAP	9	120	4
TAP	9	144	3
TAP	9	168	4
TAP	9	192	3
TAP	9	240	2
TAP	9	240	5
TAP	10	0	1
TAP	10	24	0
TAP	10	48	1
TAP	10	72	0
TAP	10	96	1
TAP	10	144	2
TAP	10	144	7
TAP	10	192	3
TAP	10	240	3
TAP	10	240	4
TAP	11	0	6
TAP	11	24	7
TAP	11	48	6
TAP	11	72	7
TAP	11	96	6
TAP	11	144	0
TAP	11	144	5
TAP	11	192	4
TAP	11	240	3
TAP	11	240	4
TAP	12	0	0
TAP	12	24	7
TAP	12	48	0
TAP	12	72	7
TAP	12	96	0
TAP	12	144	1
TAP	12	144	6
TAP	12	192	2
TAP	12	240	5
TAP	12	288	3
TAP	12	312	4
TAP	12	336	3
TAP	12	360	4
STR	13	0	3
SI_	13	0	3	96	48	7
TAP	13	96	0
TAP	13	192	2
TAP	13	192	3
TAP	13	240	3
TAP	13	240	4
TAP	13	288	4
TAP	13	288	5
TAP	14	0	6
TAP	14	24	7
TAP	14	48	6
TAP	14	72	7
TAP	14	96	6
TAP	14	144	0
TAP	14	144	7
TAP	14	192	4
TAP	14	192	5
TAP	14	240	3
TAP	14	240	4
TAP	14	288	2
TAP	14	288	3
TAP	15	0	1
TAP	15	24	0
TAP	15	48	1
TAP	15	72	0
TAP	15	96	1
TAP	15	144	0
TAP	15	144	7
TAP	15	192	3
TAP	15	216	4
TAP	15	240	3
TAP	15	264	4
TAP	15	288	1
TAP	15	336	4
TAP	15	360	3
TAP	16	0	4
TAP	16	24	3
TAP	16	48	6
TAP	16	96	2
TAP	16	120	3
TAP	16	144	2
TAP	16	168	3
TAP	16	192	0
TAP	16	240	5
TAP	16	264	4
TAP	16	288	5
TAP	16	312	4
BRK	16	336	7
TAP	17	192	1
TAP	17	192	6
TAP	17	288	0
TAP	17	336	1
TAP	17	336	7
TAP	18	0	2
TAP	18	0	6
TAP	18	96	3
TAP	18	144	2
TAP	18	144	4
STR	18	192	1
SCR	18	192	1	96	48	4
STR	18	192	5
SCR	18	192	5	96	48	0
STR	18	288	5
SUR	18	288	5	96	48	2
TAP	19	96	4
TAP	19	144	3
TAP	19	192	1
TAP	19	192	6
TAP	19	288	7
TAP	19	336	0
TAP	19	336	6
TAP	20	0	1
TAP	20	0	5
TAP	20	96	4
TAP	20	144	3
TAP	20	144	5
STR	20	192	2
SCL	20	192	2	96	48	7
STR	20	192	6
SCL	20	192	6	96	48	3
STR	20	288	2
SUL	20	288	2	96	48	5
HLD	21	192	1	144
TAP	21	336	0
TAP	22	0	2
TAP	22	0	7
TAP	22	96	3
TAP	22	96	4
HLD	22	192	6	144
TAP	22	336	7
TAP	23	0	0
TAP	23	0	5
STR	23	96	1
SCR	23	96	1	96	48	4
STR	23	192	6
SCL	23	192	6	96	48	3
TAP	23	288	1
STR	23	336	1
SCL	23	336	1	96	48	6
TAP	24	96	5
STR	24	144	5
SCR	24	144	5	96	96	2
STR	25	0	3
SI_	25	0	3	96	48	7
STR	25	0	4
SI_	25	0	4	96	48	0
TAP	25	192	1
TAP	25	192	6
TAP	25	288	0
TAP	25	336	1
TAP	25	336	7
TAP	26	0	2
TAP	26	0	6
TAP	26	96	3
TAP	26	144	2
TAP	26	144	4
STR	26	192	1
SCR	26	192	1	96	48	4
STR	26	192	5
SCR	26	192	5	96	48	0
STR	26	288	1
SUR	26	288	1	96	48	6
TAP	27	96	0
TAP	27	144	7
TAP	27	192	1
TAP	27	192	6
TAP	27	288	7
TAP	27	336	0
TAP	27	336	6
TAP	28	0	1
TAP	28	0	5
TAP	28	96	4
TAP	28	144	3
TAP	28	144	5
STR	28	192	2
SCL	28	192	2	96	48	7
STR	28	192	6
SCL	28	192	6	96	48	3
STR	28	288	6
SUL	28	288	6	96	48	1
HLD	29	192	6	144
TAP	29	336	7
TAP	30	0	0
TAP	30	0	5
TAP	30	96	3
TAP	30	96	4
HLD	30	192	1	144
TAP	30	336	0
TAP	31	0	2
TAP	31	0	7
STR	31	96	1
SV_	31	96	1	96	48	3
STR	31	96	5
SV_	31	96	5	96	48	7
TAP	31	288	6
STR	31	336	6
SCR	31	336	6	96	48	1
TAP	32	96	2
STR	32	144	2
SCL	32	144	2	96	96	5
TAP	33	0	4
TAP	33	0	5
TAP	33	48	2
TAP	33	48	3
TAP	33	96	1
TAP	33	120	6
TAP	33	144	0
TAP	33	168	7
STR	33	192	1
SI_	33	192	1	96	48	5
TAP	33	192	6
TAP	33	288	7
STR	33	336	6
SI_	33	336	6	96	48	2
TAP	34	48	0
TAP	34	96	1
STR	35	0	0
SI_	35	0	0	96	48	4
STR	35	0	7
SI_	35	0	7	96	48	3
TAP	35	192	2
STR	35	192	5
SI_	35	192	5	96	48	1
TAP	35	288	3
STR	35	336	2
SI_	35	336	2	96	48	6
TAP	36	48	4
TAP	36	96	5
TAP	36	336	0
TAP	36	360	7
TAP	37	0	1
TAP	37	32	3
TAP	37	64	2
TAP	37	96	6
TAP	37	128	4
TAP	37	160	5
STR	37	192	0
SUR	37	192	0	96	96	5
STR	37	288	5
SUR	37	288	5	96	96	2
STR	38	0	2
SUR	38	0	2	96	96	7
STR	38	96	7
SCR	38	96	7	96	48	2
TAP	38	192	5
STR	39	0	3
SI_	39	0	3	96	48	7
STR	39	0	4
SI_	39	0	4	96	48	0
STR	39	192	1
SI_	39	192	1	96	48	3
STR	39	240	6
SI_	39	240	6	96	48	4
STR	39	288	1
SI_	39	288	1	96	48	4
STR	39	336	6
SI_	39	336	6	96	48	3
STR	40	0	1
SI_	40	0	1	96	48	5
STR	40	48	6
SI_	40	48	6	96	48	2
TAP	40	96	1
TAP	40	144	6
BRK	40	192	0
STR	41	0	0
SCR	41	0	0	96	48	3
STR	41	0	7
SCL	41	0	7	96	48	4
TAP	41	96	0
TAP	41	96	7
TAP	41	192	1
TAP	41	192	6
TAP	41	240	2
TAP	41	264	3
TAP	41	288	2
TAP	41	336	7
TAP	42	0	1
TAP	42	0	6
TAP	42	48	5
TAP	42	72	4
TAP	42	96	5
TAP	42	144	0
TAP	42	192	1
TAP	42	192	6
TAP	42	240	3
TAP	42	264	4
TAP	42	288	3
TAP	42	336	7
TAP	43	0	0
TAP	43	0	6
STR	43	96	0
SI_	43	96	0	96	48	4
TAP	43	144	1
TAP	43	144	7
TAP	43	288	6
TAP	43	336	4
TAP	44	0	3
TAP	44	48	1
STR	44	96	5
SCR	44	96	5	96	48	0
TAP	44	144	4
TAP	44	192	3
STR	44	288	2
SCL	44	288	2	96	48	7
TAP	44	336	3
TAP	45	0	4
TAP	45	96	7
TAP	45	144	0
TAP	45	192	1
TAP	45	192	6
TAP	45	240	5
TAP	45	264	4
TAP	45	288	5
TAP	45	336	0
TAP	46	0	1
TAP	46	0	6
TAP	46	48	2
TAP	46	72	3
TAP	46	96	2
TAP	46	144	7
TAP	46	192	1
TAP	46	192	6
TAP	46	240	2
TAP	46	288	1
TAP	46	288	3
TAP	46	336	5
TAP	47	0	4
TAP	47	0	6
TAP	47	96	0
TAP	47	96	1
TAP	47	144	6
TAP	47	144	7
TAP	47	192	0
TAP	47	192	7
TAP	47	240	1
TAP	47	264	3
TAP	47	288	2
TAP	47	336	6
TAP	47	360	4
TAP	48	0	5
TAP	48	48	0
TAP	48	72	7
TAP	48	96	0
TAP	48	144	1
TAP	48	144	6
TAP	48	192	2
TAP	48	192	3
TAP	48	240	7
TAP	48	288	4
TAP	48	288	5
TAP	48	336	0
BRK	49	0	1
BRK	49	0	6
TAP	49	96	4
TAP	49	96	5
TAP	49	144	2
TAP	49	144	3
STR	49	192	3
SI_	49	192	3	96	48	0
STR	49	192	4
SI_	49	192	4	96	48	7
TAP	49	288	3
TAP	49	288	4
TAP	50	0	1
TAP	50	0	6
TAP	50	48	2
TAP	50	72	3
TAP	50	96	2
TAP	50	144	7
TAP	50	192	0
TAP	50	192	6
TAP	50	240	5
TAP	50	264	4
TAP	50	288	5
TAP	50	336	0
TAP	51	0	1
TAP	51	0	7
STR	51	96	7
SI_	51	96	7	96	48	3
TAP	51	144	0
TAP	51	144	6
TAP	51	288	1
TAP	51	336	3
TAP	52	0	4
TAP	52	48	6
TAP	52	96	0
TAP	52	144	7
STR	52	192	2
SI_	52	192	2	96	48	7
TAP	52	192	6
TAP	52	288	2
STR	52	288	5
SI_	52	288	5	96	48	0
BRK	53	0	1
TAP	53	0	5
TAP	53	96	2
TAP	53	144	3
TAP	53	192	1
TAP	53	192	4
TAP	53	240	5
TAP	53	264	4
TAP	53	288	5
TAP	53	336	0
TAP	54	0	1
TAP	54	0	6
TAP	54	48	2
TAP	54	72	3
TAP	54	96	2
TAP	54	144	7
TAP	54	192	1
TAP	54	192	6
TAP	54	240	2
TAP	54	288	0
TAP	54	288	6
TAP	54	336	5
TAP	55	0	1
TAP	55	0	7
TAP	55	96	6
TAP	55	96	7
TAP	55	144	0
TAP	55	144	1
TAP	55	192	0
TAP	55	192	7
TAP	55	240	6
TAP	55	264	4
TAP	55	288	5
TAP	55	336	1
TAP	55	360	3
TAP	56	0	2
TAP	56	48	7
TAP	56	72	0
TAP	56	96	7
TAP	56	144	1
TAP	56	144	6
TAP	56	192	4
TAP	56	192	5
TAP	56	240	0
TAP	56	288	2
TAP	56	288	3
TAP	56	336	7
STR	57	0	1
SI_	57	0	1	96	48	4
STR	57	0	6
SI_	57	0	6	96	48	3
BRK	57	96	1
BRK	57	96	6
STR	57	192	2
SI_	57	192	2	96	48	7
STR	57	192	5
SI_	57	192	5	96	48	0
BRK	57	288	2
BRK	57	288	5
TAP	58	0	0
TAP	58	0	7
TAP	58	48	1
TAP	58	72	0
TAP	58	96	1
TAP	58	144	4
TAP	58	192	3
TAP	58	192	5
TAP	58	240	6
TAP	58	264	7
TAP	58	288	6
TAP	58	336	2
TAP	59	0	1
TAP	59	0	3
STR	59	96	0
SCR	59	96	0	96	48	3
STR	59	96	7
SCL	59	96	7	96	48	4
TAP	59	144	1
TAP	59	144	6
TAP	59	288	2
TAP	59	336	5
TAP	60	0	7
TAP	60	48	0
TAP	60	96	2
TAP	60	144	5
STR	60	192	3
SV_	60	192	3	96	72	2
STR	60	192	4
SV_	60	192	4	96	72	5
STR	60	288	3
SI_	60	288	3	96	48	7
STR	60	288	4
SI_	60	288	4	96	48	0
TAP	61	96	0
TAP	61	144	7
TAP	61	192	1
TAP	61	192	6
TAP	61	240	2
TAP	61	264	3
TAP	61	288	2
TAP	61	336	7
TAP	62	0	0
TAP	62	0	6
TAP	62	48	5
TAP	62	72	4
TAP	62	96	5
TAP	62	144	0
TAP	62	192	1
TAP	62	192	7
TAP	62	240	2
TAP	62	240	6
TAP	62	288	3
TAP	62	288	5
TAP	62	336	0
TAP	62	336	4
TAP	63	0	2
TAP	63	0	6
TAP	63	96	1
TAP	63	96	3
TAP	63	144	4
TAP	63	144	6
TAP	63	192	0
TAP	63	192	7
TAP	63	240	1
TAP	63	264	0
TAP	63	288	1
TAP	63	336	6
TAP	63	360	7
TAP	64	0	6
TAP	64	48	3
TAP	64	72	4
TAP	64	96	3
TAP	64	144	2
TAP	64	144	5
TAP	64	192	0
TAP	64	192	7
TAP	64	240	1
TAP	64	240	6
TAP	64	288	2
TAP	64	288	5
TAP	64	336	3
TAP	64	336	4
BRK	65	0	1
BRK	65	0	6
TAP	65	96	0
TAP	65	96	7
TAP	65	144	1
TAP	65	144	6
TAP	65	192	2
TAP	65	192	5
TAP	65	240	4
TAP	65	264	3
TAP	65	288	4
TAP	65	336	2
TAP	65	336	5
TAP	66	0	1
TAP	66	0	6
TAP	66	48	0
TAP	66	72	7
TAP	66	96	0
TAP	66	144	1
TAP	66	144	6
TAP	66	192	0
TAP	66	192	4
TAP	66	240	1
TAP	66	240	5
TAP	66	288	2
TAP	66	288	6
TAP	66	336	3
TAP	66	336	7
TAP	67	0	0
TAP	67	0	4
TAP	67	48	1
TAP	67	48	5
TAP	67	96	2
TAP	67	96	6
HLD	67	144	3	210
HLD	67	144	7	210
STR	68	0	3
SCL	68	0	3	96	48	0
STR	68	0	7
SCL	68	0	7	96	48	4
TAP	68	96	3
TAP	68	96	7
TAP	68	192	7
TAP	68	216	6
TAP	68	240	7
TAP	68	264	6
TAP	68	288	3
TAP	68	312	4
TAP	68	336	3
TAP	68	360	4
TAP	69	0	1
TAP	69	24	0
TAP	69	48	1
TAP	69	72	0
TAP	69	96	3
TAP	69	120	4
TAP	69	144	3
TAP	69	168	4
TAP	69	192	2
TAP	69	240	1
TAP	69	240	3
TAP	69	288	5
TAP	69	336	4
TAP	69	336	6
STR	70	0	0
SI_	70	0	0	96	48	4
STR	70	0	7
SI_	70	0	7	96	48	3
BRK	70	96	0
BRK	70	96	7
TAP	70	192	2
TAP	70	192	3
TAP	70	240	3
TAP	70	240	4
TAP	70	288	4
TAP	70	288	5
TAP	71	0	6
TAP	71	24	7
TAP	71	48	6
TAP	71	72	7
TAP	71	96	6
TAP	71	144	0
TAP	71	144	7
TAP	71	192	4
TAP	71	192	5
TAP	71	240	3
TAP	71	240	4
TAP	71	288	2
TAP	71	288	3
TAP	72	0	1
TAP	72	24	0
TAP	72	48	1
TAP	72	72	0
TAP	72	96	1
TAP	72	144	0
TAP	72	144	7
TAP	72	192	2
TAP	72	192	3
TAP	72	240	3
TAP	72	240	4
TAP	72	288	4
TAP	72	288	5
TAP	73	0	6
TAP	73	24	7
TAP	73	48	6
TAP	73	72	7
TAP	73	96	6
TAP	73	144	0
TAP	73	144	7
TAP	73	192	4
TAP	73	192	5
TAP	73	240	2
TAP	73	240	3
TAP	73	288	4
TAP	73	312	3
TAP	73	336	4
TAP	73	360	3
STR	74	0	4
SI_	74	0	4	96	48	0
TAP	74	96	7
TAP	74	192	1
TAP	74	192	2
TAP	74	240	3
TAP	74	240	4
TAP	74	288	5
TAP	74	288	6
TAP	75	0	6
TAP	75	24	7
TAP	75	48	6
TAP	75	72	7
TAP	75	96	6
TAP	75	144	0
TAP	75	144	7
TAP	75	192	5
TAP	75	192	6
TAP	75	240	3
TAP	75	240	4
TAP	75	288	1
TAP	75	288	2
TAP	76	0	1
TAP	76	24	0
TAP	76	48	1
TAP	76	72	0
TAP	76	96	1
TAP	76	144	0
TAP	76	144	7
TAP	76	192	3
TAP	76	216	4
TAP	76	240	3
TAP	76	264	4
TAP	76	288	1
TAP	76	336	4
TAP	76	360	3
TAP	77	0	4
TAP	77	24	3
TAP	77	48	6
TAP	77	96	2
TAP	77	120	3
TAP	77	144	2
TAP	77	168	3
TAP	77	192	0
TAP	77	240	5
TAP	77	264	4
TAP	77	288	5
TAP	77	312	4
TAP	77	336	7
TAP	78	0	1
TAP	78	0	6
TAP	78	48	2
TAP	78	48	5
TAP	78	96	3
TAP	78	120	4
TAP	78	144	3
TAP	78	168	4
TAP	78	192	2
TAP	78	216	3
TAP	78	240	1
TAP	78	264	3
TAP	78	288	0
TAP	78	336	5
TAP	78	360	4
TAP	79	0	6
TAP	79	24	4
TAP	79	48	7
STR	79	96	1
SI_	79	96	1	96	48	5
TAP	79	120	0
TAP	79	144	1
TAP	79	168	0
TAP	79	192	1
STR	79	240	6
SI_	79	240	6	96	48	2
TAP	79	264	7
TAP	79	288	6
TAP	79	312	7
TAP	79	336	6

T_REC_TAP	591
T_REC_BRK	13
T_REC_XTP	0
T_REC_HLD	6
T_REC_XHO	0
T_REC_STR	69
T_REC_BST	0
T_REC_XST	0
T_REC_TTP	0
T_REC_THO	0
T_REC_SLD	69
T_REC_ALL	748
T_NUM_TAP	660
T_NUM_BRK	13
T_NUM_HLD	6
T_NUM_SLD	69
T_NUM_ALL	748
T_JUDGE_TAP	673
T_JUDGE_HLD	30
T_JUDGE_SLD	69
T_JUDGE_ALL	772
TTM_EACHPAIRS	160
TTM_SCR_TAP	330000
TTM_SCR_BRK	33800
TTM_SCR_HLD	6000
TTM_SCR_SLD	103500
TTM_SCR_ALL	473300
TTM_SCR_S	457850
TTM_SCR_SS	472000
TTM_RAT_ACV	10027

