VERSION	0.00.00	1.03.00
FES_MODE	0
BPM_DEF	156.000	186.000	186.000	108.727
MET_DEF	4	4
RESOLUTION	384
CLK_DEF	384
COMPATIBLE_CODE	MA2

BPM	0	0	156.000
BPM	2	0	161.000
BPM	2	192	167.000
BPM	2	288	161.000
BPM	3	0	160.000
BPM	3	96	166.000
BPM	3	288	162.000
BPM	4	96	171.000
BPM	4	192	156.000
BPM	4	288	135.000
BPM	5	0	145.000
BPM	6	0	155.000
BPM	6	96	165.000
BPM	6	288	150.000
BPM	7	0	130.000
BPM	7	96	155.000
BPM	7	192	129.000
BPM	7	288	141.000
BPM	9	96	186.000
BPM	66	0	178.478
BPM	66	96	168.416
BPM	66	192	162.607
BPM	66	288	140.856
BPM	67	0	126.931
BPM	67	96	108.727
BPM	67	192	119.510
BPM	68	0	186.000
MET	0	0	4	4
MET	9	0	2	4
MET	9	192	4	4

TAP	2	0	1
TAP	2	0	4
TAP	3	0	3
TAP	3	0	6
TAP	3	192	0
TAP	3	192	7
TAP	4	0	1
TAP	4	96	6
TAP	4	192	2
TAP	4	288	5
TAP	5	0	3
TAP	5	0	4
TAP	5	192	1
TAP	5	288	0
TAP	6	0	2
TAP	6	0	7
TAP	6	192	6
TAP	6	288	7
STR	7	0	0
SCR	7	0	0	72	696	7
TAP	7	0	5
TAP	9	192	0
TAP	9	192	7
TAP	9	240	0
TAP	9	240	7
TAP	10	192	0
TAP	10	192	1
TAP	10	240	0
TAP	10	240	1
TAP	11	192	6
TAP	11	192	7
TAP	11	240	6
TAP	11	240	7
TAP	12	192	3
TAP	12	192	4
TAP	12	288	2
TAP	12	288	3
TAP	13	0	4
TAP	13	0	5
TAP	13	192	3
TAP	13	288	2
TAP	14	0	1
TAP	14	0	4
TAP	14	192	4
TAP	14	288	5
TAP	15	0	3
TAP	15	0	6
TAP	15	192	3
TAP	15	192	4
TAP	15	336	2
TAP	15	336	5
TAP	16	96	1
TAP	16	96	6
BRK	16	240	0
BRK	16	240	7
TAP	17	0	0
TAP	17	96	7
TAP	17	192	1
TAP	17	192	6
TAP	17	336	0
TAP	18	0	0
TAP	18	144	1
HLD	18	192	1	96
HLD	18	288	2	96
TAP	19	0	3
TAP	19	96	3
TAP	19	96	4
TAP	19	192	2
TAP	19	192	5
TAP	19	336	7
TAP	20	0	7
TAP	20	144	6
HLD	20	192	6	96
HLD	20	288	5	96
TAP	21	0	4
HLD	21	192	1	192
TAP	21	336	4
TAP	22	0	4
HLD	22	192	6	192
TAP	22	336	3
TAP	23	0	3
HLD	23	192	1	96
HLD	23	288	0	96
HLD	24	0	7	96
HLD	24	96	6	96
TAP	24	192	5
TAP	25	0	3
TAP	25	0	4
TAP	25	96	1
TAP	25	96	6
TAP	25	192	0
TAP	25	192	7
TAP	25	336	6
HLD	26	0	6	144
TAP	26	144	3
HLD	26	192	3	96
HLD	26	288	2	96
TAP	27	0	1
TAP	27	96	0
TAP	27	96	7
TAP	27	192	2
TAP	27	192	5
TAP	27	336	1
HLD	28	0	1	144
TAP	28	144	4
HLD	28	192	4	96
HLD	28	288	5	96
TAP	29	0	6
HLD	29	192	2	144
TAP	29	336	1
TAP	30	0	1
HLD	30	192	5	144
TAP	30	336	6
TAP	31	0	6
TAP	31	192	1
TAP	31	192	6
TAP	31	288	0
TAP	31	336	7
BRK	32	96	7
BRK	32	144	0
TAP	33	0	0
TAP	33	0	1
TAP	33	96	6
TAP	33	96	7
STR	33	192	0
SI_	33	192	0	96	48	4
STR	33	336	7
SI_	33	336	7	96	48	3
STR	34	96	1
SCR	34	96	1	96	96	4
TAP	35	0	6
TAP	35	0	7
TAP	35	96	0
TAP	35	96	1
STR	35	192	7
SI_	35	192	7	96	48	3
STR	35	336	0
SI_	35	336	0	96	48	4
STR	36	96	6
SCL	36	96	6	96	96	3
TAP	37	0	0
TAP	37	0	1
TAP	37	96	6
TAP	37	96	7
HLD	37	192	3	96
TAP	37	288	1
HLD	38	0	4	96
TAP	38	96	6
TAP	38	192	2
TAP	38	192	5
TAP	39	0	2
TAP	39	0	3
TAP	39	96	4
TAP	39	96	5
HLD	39	192	0	96
TAP	39	288	2
HLD	40	0	7	96
TAP	40	96	5
BRK	40	192	1
BRK	40	192	6
TAP	41	0	3
TAP	41	96	4
TAP	41	192	2
TAP	41	192	5
TAP	41	288	2
TAP	41	336	3
TAP	42	0	2
TAP	42	96	5
TAP	42	144	4
TAP	42	192	5
TAP	42	288	6
TAP	42	288	7
TAP	43	0	0
TAP	43	0	1
TAP	43	192	1
TAP	43	192	6
TAP	43	288	1
TAP	43	336	0
TAP	44	0	1
TAP	44	96	6
TAP	44	144	7
TAP	44	192	6
BRK	44	288	3
BRK	44	288	4
BRK	45	0	1
BRK	45	0	6
TAP	45	96	3
TAP	45	144	4
TAP	45	192	2
TAP	45	288	4
TAP	45	336	3
TAP	46	0	5
TAP	46	96	1
TAP	46	96	6
TAP	46	192	0
TAP	46	240	7
TAP	46	288	0
TAP	46	336	7
TAP	47	0	0
TAP	47	96	1
TAP	47	96	6
STR	47	192	7
SI_	47	192	7	96	48	4
STR	47	288	0
SI_	47	288	0	96	48	3
STR	48	0	7
SI_	48	0	7	96	48	4
STR	48	96	0
SI_	48	96	0	96	48	3
TAP	48	192	7
TAP	48	288	0
BRK	49	0	1
BRK	49	0	6
TAP	49	192	3
TAP	49	192	4
TAP	49	288	1
TAP	49	336	3
TAP	50	0	2
TAP	50	96	6
TAP	50	144	4
TAP	50	192	5
TAP	50	288	0
TAP	50	288	2
TAP	51	0	5
TAP	51	0	7
TAP	51	192	2
TAP	51	192	5
TAP	51	288	6
TAP	51	336	0
TAP	52	0	7
TAP	52	96	1
TAP	52	144	7
TAP	52	192	0
BRK	52	288	3
BRK	52	288	4
BRK	53	0	0
BRK	53	0	7
TAP	53	96	1
TAP	53	144	5
TAP	53	192	3
TAP	53	288	6
TAP	53	336	2
TAP	54	0	4
TAP	54	96	2
TAP	54	144	5
TAP	54	192	1
TAP	54	240	6
TAP	54	288	0
TAP	54	336	7
TAP	55	0	0
TAP	55	96	1
TAP	55	96	6
STR	55	192	7
SI_	55	192	7	96	48	2
STR	55	288	0
SI_	55	288	0	96	48	5
STR	56	0	7
SI_	56	0	7	96	48	2
STR	56	96	0
SI_	56	96	0	96	48	5
TAP	56	192	7
TAP	56	288	0
BRK	57	0	1
BRK	57	0	6
TAP	57	192	0
TAP	57	192	7
TAP	57	288	0
TAP	57	336	1
TAP	58	0	2
TAP	58	96	7
TAP	58	144	6
TAP	58	192	5
TAP	58	288	1
TAP	58	288	2
TAP	59	0	5
TAP	59	0	6
TAP	59	192	1
TAP	59	192	6
TAP	59	288	3
TAP	59	336	2
TAP	60	0	1
TAP	60	96	4
TAP	60	144	5
TAP	60	192	6
BRK	60	288	3
BRK	60	288	4
BRK	61	0	0
BRK	61	0	7
TAP	61	96	1
TAP	61	144	1
TAP	61	192	0
TAP	61	192	2
TAP	61	288	6
TAP	61	336	6
TAP	62	0	5
TAP	62	0	7
TAP	62	96	2
TAP	62	144	1
TAP	62	192	0
TAP	62	240	7
TAP	62	288	6
TAP	62	336	5
TAP	63	0	3
TAP	63	0	4
TAP	63	96	2
TAP	63	96	5
STR	63	192	4
SI_	63	192	4	96	48	0
STR	63	288	3
SI_	63	288	3	96	48	7
STR	64	0	4
SI_	64	0	4	96	48	0
STR	64	96	3
SI_	64	96	3	96	48	7
BRK	64	192	4
BRK	64	288	3
BRK	65	0	1
BRK	65	0	6
TAP	65	96	1
TAP	65	144	0
TAP	65	192	2
TAP	65	192	7
TAP	65	288	6
TAP	65	336	7
TAP	66	0	0
TAP	66	0	5
TAP	66	96	7
TAP	66	144	0
TAP	66	192	6
TAP	66	240	1
TAP	66	288	5
TAP	66	336	2
STR	67	0	3
SUR	67	0	3	66	198	0
STR	67	0	4
SUL	67	0	4	66	198	7
TAP	68	0	0
TAP	68	0	1
TAP	68	96	6
TAP	68	96	7
STR	68	192	0
SCR	68	192	0	96	48	3
STR	68	288	7
SCL	68	288	7	96	48	4
STR	69	0	0
SI_	69	0	0	96	48	4
BRK	69	96	7
TAP	69	192	7
TAP	69	240	0
TAP	69	288	7
TAP	69	336	0
BRK	70	0	1
BRK	70	0	6
TAP	70	192	0
TAP	70	288	4
TAP	71	0	2
TAP	71	0	6
TAP	71	96	1
TAP	71	96	5
TAP	71	192	7
TAP	71	288	3
TAP	72	0	1
TAP	72	0	5
TAP	72	96	2
TAP	72	96	6
TAP	72	192	0
TAP	72	192	1
TAP	72	288	4
TAP	72	288	5
TAP	73	0	6
TAP	73	0	7
TAP	73	96	2
TAP	73	96	3
STR	73	192	0
SSL	73	192	0	96	192	4
TAP	74	192	5
TAP	74	288	3
TAP	74	288	7
TAP	75	0	3
TAP	75	96	1
TAP	75	96	5
TAP	75	192	2
TAP	75	288	0
TAP	75	288	4
TAP	76	0	4
TAP	76	96	2
TAP	76	96	6
STR	76	192	1
SI_	76	192	1	96	48	6
STR	76	336	5
SI_	76	336	5	96	48	2
STR	77	96	0
SUR	77	96	0	96	192	3
STR	78	192	6
SI_	78	192	6	96	40	1
STR	78	336	2
SI_	78	336	2	96	40	5
STR	79	96	7
SUL	79	96	7	96	192	4

T_REC_TAP	286
T_REC_BRK	29
T_REC_XTP	0
T_REC_HLD	22
T_REC_XHO	0
T_REC_STR	31
T_REC_BST	0
T_REC_XST	0
T_REC_TTP	0
T_REC_THO	0
T_REC_SLD	31
T_REC_ALL	399
T_NUM_TAP	317
T_NUM_BRK	29
T_NUM_HLD	22
T_NUM_SLD	31
T_NUM_ALL	399
T_JUDGE_TAP	346
T_JUDGE_HLD	52
T_JUDGE_SLD	31
T_JUDGE_ALL	429
TTM_EACHPAIRS	86
TTM_SCR_TAP	158500
TTM_SCR_BRK	75400
TTM_SCR_HLD	22000
TTM_SCR_SLD	46500
TTM_SCR_ALL	302400
TTM_SCR_S	290550
TTM_SCR_SS	299500
TTM_RAT_ACV	10096

