VERSION	0.00.00	1.03.00
FES_MODE	0
BPM_DEF	156.000	186.000	186.000	108.727
MET_DEF	4	4
RESOLUTION	384
CLK_DEF	384
COMPATIBLE_CODE	MA2

BPM	0	0	156.000
BPM	2	0	161.000
BPM	2	192	167.000
BPM	2	288	161.000
BPM	3	0	160.000
BPM	3	96	166.000
BPM	3	288	162.000
BPM	4	96	171.000
BPM	4	192	156.000
BPM	4	288	135.000
BPM	5	0	145.000
BPM	6	0	155.000
BPM	6	96	165.000
BPM	6	288	150.000
BPM	7	0	130.000
BPM	7	96	155.000
BPM	7	192	129.000
BPM	7	288	141.000
BPM	9	96	186.000
BPM	66	0	178.478
BPM	66	96	168.416
BPM	66	192	162.607
BPM	66	288	140.856
BPM	67	0	126.931
BPM	67	96	108.727
BPM	67	192	119.510
BPM	68	0	186.000
MET	0	0	4	4
MET	9	0	2	4
MET	9	192	4	4

TAP	2	0	3
TAP	2	0	4
TAP	3	0	3
TAP	3	0	4
TAP	3	192	2
TAP	3	192	5
TAP	4	0	2
TAP	4	96	3
TAP	4	192	4
TAP	4	288	5
TAP	5	0	3
TAP	5	0	4
TAP	5	192	2
TAP	5	288	3
TAP	6	0	1
TAP	6	0	4
TAP	6	192	5
TAP	6	288	4
TAP	7	0	3
TAP	7	0	6
TAP	7	192	3
TAP	7	192	4
TAP	9	192	2
TAP	9	288	3
TAP	10	0	2
TAP	10	192	5
TAP	10	288	4
TAP	11	0	5
TAP	11	192	3
TAP	11	288	4
TAP	12	0	3
TAP	12	192	3
TAP	12	192	4
TAP	12	288	2
TAP	12	288	5
TAP	13	0	1
TAP	13	0	6
TAP	13	192	1
TAP	13	288	0
TAP	14	0	1
TAP	14	192	6
TAP	14	288	7
TAP	15	0	6
STR	15	192	0
SSL	15	192	0	96	480	4
TAP	17	192	2
TAP	17	288	3
TAP	18	0	2
TAP	18	96	2
TAP	18	192	3
TAP	18	288	2
TAP	19	0	1
TAP	19	0	3
TAP	19	192	5
TAP	19	288	4
TAP	20	0	5
TAP	20	96	5
TAP	20	192	4
TAP	20	288	5
TAP	21	0	4
TAP	21	0	6
HLD	21	192	2	192
TAP	22	0	3
HLD	22	192	5	192
TAP	23	0	4
TAP	23	192	6
TAP	23	288	7
TAP	24	0	0
TAP	24	96	1
TAP	24	192	0
TAP	24	192	7
TAP	25	0	0
TAP	25	96	7
TAP	25	192	1
TAP	25	288	0
TAP	26	0	1
TAP	26	96	1
TAP	26	192	0
TAP	26	288	1
TAP	27	0	0
TAP	27	0	2
TAP	27	192	6
TAP	27	288	7
TAP	28	0	6
TAP	28	96	6
TAP	28	192	7
TAP	28	288	6
TAP	29	0	5
TAP	29	0	7
HLD	29	192	1	192
TAP	30	0	0
HLD	30	192	6	192
TAP	31	0	7
TAP	31	192	5
TAP	31	288	4
TAP	32	0	3
TAP	32	96	2
TAP	32	192	3
TAP	32	192	4
TAP	33	0	3
TAP	33	0	4
TAP	33	96	2
TAP	33	96	5
STR	33	192	1
SCR	33	192	1	96	288	4
TAP	33	192	6
TAP	35	0	3
TAP	35	0	4
TAP	35	96	2
TAP	35	96	5
TAP	35	192	1
STR	35	192	6
SCL	35	192	6	96	288	3
TAP	37	0	2
TAP	37	96	1
TAP	37	192	0
TAP	37	288	7
TAP	38	0	6
TAP	38	96	5
TAP	38	192	3
TAP	38	192	4
TAP	39	0	2
TAP	39	0	5
TAP	39	96	1
TAP	39	96	6
HLD	39	192	1	96
TAP	39	288	0
HLD	40	0	6	96
TAP	40	96	7
BRK	40	192	0
BRK	40	192	7
TAP	41	0	0
TAP	41	96	7
TAP	41	192	1
TAP	41	288	3
TAP	42	0	2
TAP	42	96	4
TAP	42	192	3
TAP	42	288	5
TAP	43	0	6
TAP	43	0	7
TAP	43	192	6
TAP	43	288	4
TAP	44	0	5
TAP	44	96	3
TAP	44	192	4
TAP	44	288	2
TAP	45	0	0
TAP	45	0	1
TAP	45	192	1
TAP	45	288	2
TAP	46	0	3
TAP	46	96	4
TAP	46	192	5
TAP	46	288	6
TAP	47	0	0
TAP	47	0	7
TAP	47	192	0
TAP	47	192	1
TAP	47	288	0
TAP	47	288	1
TAP	48	0	6
TAP	48	0	7
TAP	48	96	6
TAP	48	96	7
TAP	48	192	0
TAP	48	192	7
TAP	48	288	1
TAP	48	288	6
BRK	49	0	2
BRK	49	0	5
TAP	49	192	3
TAP	49	288	4
TAP	50	0	5
TAP	50	96	6
TAP	50	96	7
TAP	50	192	5
TAP	50	288	4
TAP	51	0	2
TAP	51	0	3
TAP	51	192	4
TAP	51	288	3
TAP	52	0	2
TAP	52	96	0
TAP	52	96	1
TAP	52	192	2
TAP	52	288	3
TAP	53	0	4
TAP	53	0	5
TAP	53	192	6
TAP	53	288	5
TAP	54	0	4
TAP	54	96	3
TAP	54	192	2
TAP	54	288	1
TAP	55	0	0
TAP	55	0	7
TAP	55	192	6
TAP	55	192	7
TAP	55	288	6
TAP	55	288	7
TAP	56	0	0
TAP	56	0	1
TAP	56	96	0
TAP	56	96	1
TAP	56	192	0
TAP	56	192	7
TAP	56	288	1
TAP	56	288	6
BRK	57	0	2
BRK	57	0	5
TAP	57	192	3
TAP	57	288	5
TAP	58	0	7
TAP	58	96	0
TAP	58	96	1
TAP	58	192	2
TAP	58	288	7
TAP	59	0	5
TAP	59	96	3
TAP	59	192	4
TAP	59	288	2
TAP	60	0	0
TAP	60	96	6
TAP	60	96	7
TAP	60	192	5
TAP	60	288	0
TAP	61	0	2
TAP	61	96	4
TAP	61	192	6
TAP	61	288	6
TAP	61	288	7
TAP	62	0	1
TAP	62	96	0
TAP	62	96	1
TAP	62	192	0
TAP	62	192	7
TAP	62	288	1
TAP	62	288	6
TAP	63	0	2
TAP	63	0	5
TAP	63	96	3
TAP	63	96	4
TAP	63	192	2
TAP	63	192	3
TAP	63	288	2
TAP	63	288	3
TAP	64	0	4
TAP	64	0	5
TAP	64	96	4
TAP	64	96	5
TAP	64	192	3
TAP	64	192	4
TAP	64	288	2
TAP	64	288	5
BRK	65	0	1
BRK	65	0	6
TAP	65	96	0
TAP	65	96	7
HLD	65	192	1	96
TAP	65	288	0
HLD	66	0	6	96
TAP	66	96	7
TAP	66	192	0
TAP	66	192	7
TAP	66	288	0
TAP	66	288	7
TAP	67	0	0
TAP	67	0	7
TAP	68	0	3
TAP	68	0	4
TAP	68	96	3
TAP	68	96	4
TAP	68	192	2
TAP	68	288	1
TAP	69	0	0
TAP	69	96	7
TAP	69	192	6
TAP	69	288	5
BRK	70	0	3
BRK	70	0	4
TAP	70	192	2
TAP	70	288	3
TAP	71	0	1
TAP	71	96	4
TAP	71	192	0
TAP	71	288	5
TAP	72	0	7
TAP	72	96	6
TAP	72	192	0
TAP	72	192	7
TAP	72	288	1
TAP	72	288	6
TAP	73	0	2
TAP	73	0	5
TAP	73	96	3
TAP	73	96	4
TAP	73	192	2
TAP	73	192	5
TAP	73	288	3
TAP	73	336	4
TAP	74	0	3
TAP	74	192	5
TAP	74	288	4
TAP	75	0	6
TAP	75	96	3
TAP	75	192	7
TAP	75	288	2
TAP	76	0	0
TAP	76	96	1
STR	76	192	0
SCR	76	192	0	96	480	7
STR	78	192	7
SCL	78	192	7	96	480	0

T_REC_TAP	286
T_REC_BRK	10
T_REC_XTP	0
T_REC_HLD	8
T_REC_XHO	0
T_REC_STR	5
T_REC_BST	0
T_REC_XST	0
T_REC_TTP	0
T_REC_THO	0
T_REC_SLD	5
T_REC_ALL	314
T_NUM_TAP	291
T_NUM_BRK	10
T_NUM_HLD	8
T_NUM_SLD	5
T_NUM_ALL	314
T_JUDGE_TAP	301
T_JUDGE_HLD	24
T_JUDGE_SLD	5
T_JUDGE_ALL	330
TTM_EACHPAIRS	75
TTM_SCR_TAP	145500
TTM_SCR_BRK	26000
TTM_SCR_HLD	8000
TTM_SCR_SLD	7500
TTM_SCR_ALL	187000
TTM_SCR_S	180450
TTM_SCR_SS	186000
TTM_RAT_ACV	10053

