VERSION	0.00.00	1.03.00
FES_MODE	0
BPM_DEF	156.000	186.000	186.000	108.727
MET_DEF	4	4
RESOLUTION	384
CLK_DEF	384
COMPATIBLE_CODE	MA2

BPM	0	0	156.000
BPM	2	0	161.000
BPM	2	192	167.000
BPM	2	288	161.000
BPM	3	0	160.000
BPM	3	96	166.000
BPM	3	288	162.000
BPM	4	96	171.000
BPM	4	192	156.000
BPM	4	288	135.000
BPM	5	0	145.000
BPM	6	0	155.000
BPM	6	96	165.000
BPM	6	288	150.000
BPM	7	0	130.000
BPM	7	96	155.000
BPM	7	192	129.000
BPM	7	288	141.000
BPM	9	96	186.000
BPM	66	0	178.478
BPM	66	96	168.416
BPM	66	192	162.607
BPM	66	288	140.856
BPM	67	0	126.931
BPM	67	96	108.727
BPM	67	192	119.510
BPM	68	0	186.000
MET	0	0	4	4
MET	9	0	2	4
MET	9	192	4	4

TAP	9	192	0
TAP	10	192	7
TAP	11	192	0
TAP	12	192	7
TAP	13	0	7
TAP	13	192	0
TAP	13	288	0
TAP	14	0	0
TAP	14	192	1
TAP	14	288	1
TAP	15	0	1
TAP	15	192	2
TAP	15	192	3
TAP	16	0	2
TAP	16	0	3
BRK	16	192	2
BRK	16	192	3
TAP	17	192	4
TAP	18	0	4
TAP	18	192	4
TAP	19	192	5
TAP	20	0	5
TAP	20	192	5
STR	21	192	6
SI_	21	192	6	96	288	1
STR	23	192	2
SI_	23	192	2	96	288	5
TAP	25	192	6
TAP	26	0	6
TAP	26	192	6
TAP	26	192	7
TAP	27	192	7
TAP	28	0	7
TAP	28	192	0
TAP	28	192	7
STR	29	192	1
SI_	29	192	1	96	288	6
STR	31	192	5
SI_	31	192	5	96	288	2
HLD	33	192	1	288
HLD	35	192	2	288
TAP	37	192	3
TAP	38	192	4
TAP	39	192	3
TAP	40	0	3
TAP	40	192	3
TAP	40	192	4
TAP	41	192	2
TAP	41	288	2
TAP	42	0	2
TAP	42	192	1
TAP	42	288	1
TAP	43	0	1
TAP	43	192	0
TAP	43	288	0
TAP	44	0	0
TAP	44	192	7
TAP	44	288	7
TAP	45	0	7
TAP	45	192	6
TAP	45	288	6
TAP	46	0	6
TAP	46	192	5
TAP	46	288	5
TAP	47	0	5
TAP	47	192	4
TAP	47	288	4
TAP	48	0	3
TAP	48	96	3
TAP	48	192	4
TAP	48	288	4
TAP	49	0	4
TAP	49	192	5
TAP	49	288	5
TAP	50	0	5
TAP	50	192	6
TAP	50	288	6
TAP	51	0	6
TAP	51	192	7
TAP	51	288	7
TAP	52	0	7
TAP	52	192	0
TAP	52	288	0
TAP	53	0	0
TAP	53	192	1
TAP	53	288	1
TAP	54	0	1
TAP	54	192	2
TAP	54	288	2
TAP	55	0	2
TAP	55	192	3
TAP	55	288	3
TAP	56	0	4
TAP	56	96	4
TAP	56	192	3
TAP	56	288	3
BRK	57	0	3
TAP	57	192	2
TAP	57	192	3
TAP	58	0	2
TAP	58	0	3
TAP	58	192	1
TAP	58	288	1
TAP	59	0	1
TAP	59	192	0
TAP	59	288	0
TAP	60	0	0
TAP	60	192	0
TAP	60	192	7
TAP	60	288	0
TAP	60	288	7
TAP	61	0	0
TAP	61	0	7
TAP	61	192	6
TAP	61	192	7
TAP	62	0	6
TAP	62	0	7
TAP	62	192	7
TAP	62	288	7
TAP	63	0	7
TAP	63	192	0
TAP	63	288	0
TAP	64	0	7
TAP	64	96	7
TAP	64	192	0
TAP	64	288	0
TAP	65	0	0
TAP	65	192	7
TAP	65	288	7
TAP	66	0	0
TAP	66	96	0
STR	66	192	7
SI_	66	192	7	84	252	3
TAP	68	192	3
TAP	68	288	3
TAP	69	0	4
TAP	69	96	4
TAP	69	192	3
TAP	69	192	4
TAP	69	288	3
TAP	69	288	4
BRK	70	0	3
BRK	70	0	4
TAP	70	192	2
TAP	71	0	2
TAP	71	192	1
TAP	72	0	1
TAP	72	192	0
TAP	73	0	0
TAP	73	192	7
TAP	73	288	7
TAP	74	0	7
TAP	74	192	6
TAP	75	0	6
TAP	75	192	5
TAP	76	0	5
STR	76	192	4
SI_	76	192	4	96	384	7
STR	78	192	3
SI_	78	192	3	96	384	0

T_REC_TAP	139
T_REC_BRK	5
T_REC_XTP	0
T_REC_HLD	2
T_REC_XHO	0
T_REC_STR	7
T_REC_BST	0
T_REC_XST	0
T_REC_TTP	0
T_REC_THO	0
T_REC_SLD	7
T_REC_ALL	160
T_NUM_TAP	146
T_NUM_BRK	5
T_NUM_HLD	2
T_NUM_SLD	7
T_NUM_ALL	160
T_JUDGE_TAP	151
T_JUDGE_HLD	12
T_JUDGE_SLD	7
T_JUDGE_ALL	170
TTM_EACHPAIRS	16
TTM_SCR_TAP	73000
TTM_SCR_BRK	13000
TTM_SCR_HLD	2000
TTM_SCR_SLD	10500
TTM_SCR_ALL	98500
TTM_SCR_S	95100
TTM_SCR_SS	98000
TTM_RAT_ACV	10051

