VERSION	0.00.00	1.03.00
FES_MODE	0
BPM_DEF	125.000	125.000	125.000	125.000
MET_DEF	4	4
RESOLUTION	384
CLK_DEF	384
COMPATIBLE_CODE	MA2

BPM	0	0	125.000
MET	0	0	4	4

HLD	1	0	2	720
HLD	1	0	6	336
HLD	2	0	0	720
HLD	3	0	4	648
HLD	4	0	3	264
HLD	5	0	5	72
HLD	5	72	4	72
TAP	5	144	3
HLD	5	192	2	72
HLD	5	264	3	72
TAP	5	336	5
HLD	6	0	5	72
HLD	6	72	4	72
TAP	6	144	3
HLD	6	192	2	72
HLD	6	264	3	72
TAP	6	312	5
TAP	6	336	5
HLD	7	0	6	72
HLD	7	72	4	72
TAP	7	144	3
HLD	7	192	1	72
HLD	7	264	3	72
TAP	7	336	5
HLD	8	0	6	72
HLD	8	72	4	72
TAP	8	144	3
HLD	8	192	1	72
HLD	8	264	3	72
TAP	8	312	5
TAP	8	336	5
STR	9	0	6
SI_	9	0	6	96	48	3
TAP	9	72	0
TAP	9	144	2
STR	9	192	1
SI_	9	192	1	96	48	4
TAP	9	264	7
TAP	9	336	5
TAP	10	0	3
STR	10	0	6
SI_	10	0	6	96	48	3
TAP	10	72	0
TAP	10	144	2
STR	10	192	1
SI_	10	192	1	96	48	4
TAP	10	192	4
TAP	10	264	7
TAP	10	336	5
TAP	11	0	3
STR	11	0	6
SI_	11	0	6	96	48	3
TAP	11	72	0
TAP	11	120	2
TAP	11	144	2
STR	11	192	1
SI_	11	192	1	96	48	4
TAP	11	192	4
TAP	11	264	7
TAP	11	312	5
TAP	11	336	5
TAP	12	0	3
STR	12	0	6
SI_	12	0	6	96	48	3
TAP	12	72	0
TAP	12	120	2
TAP	12	144	2
STR	12	192	1
SV_	12	192	1	96	48	7
TAP	12	192	4
TAP	13	0	1
TAP	13	24	3
TAP	13	48	2
TAP	13	72	3
TAP	13	96	1
TAP	13	120	3
TAP	13	144	2
TAP	13	168	3
TAP	13	192	4
TAP	13	216	3
TAP	13	240	2
TAP	13	264	3
TAP	14	0	6
TAP	14	24	4
TAP	14	48	5
TAP	14	72	4
TAP	14	96	6
TAP	14	120	4
TAP	14	144	5
TAP	14	168	4
TAP	14	192	3
TAP	14	216	4
TAP	14	240	5
TAP	14	264	4
TAP	15	0	1
TAP	15	24	3
TAP	15	48	2
TAP	15	72	3
TAP	15	96	4
STR	15	120	3
SI_	15	120	3	96	48	5
TAP	15	144	2
STR	15	168	3
SI_	15	168	3	96	48	1
TAP	16	0	6
TAP	16	24	4
TAP	16	48	5
TAP	16	72	4
TAP	16	96	3
TAP	16	120	4
TAP	16	144	5
TAP	16	168	0
TAP	16	192	1
TAP	16	216	0
TAP	16	240	7
TAP	16	264	1
TAP	16	312	5
TAP	16	336	4
TAP	16	336	5
HLD	17	0	6	72
TAP	17	72	7
TAP	17	120	2
TAP	17	144	3
TAP	17	168	2
TAP	17	192	1
TAP	17	240	6
TAP	17	264	5
TAP	17	288	4
TAP	17	312	5
TAP	17	360	2
TAP	17	360	3
TAP	18	24	0
TAP	18	48	0
TAP	18	72	0
TAP	18	96	5
TAP	18	120	4
TAP	18	144	3
TAP	18	168	4
TAP	18	192	5
TAP	18	240	1
TAP	18	264	2
TAP	18	288	3
TAP	18	312	2
TAP	18	360	4
TAP	18	360	5
TAP	19	24	7
TAP	19	48	7
TAP	19	96	3
TAP	19	144	2
TAP	19	144	3
TAP	19	192	5
TAP	19	216	5
TAP	19	240	4
TAP	19	288	2
TAP	19	312	2
TAP	19	360	2
TAP	19	360	3
TAP	20	24	6
TAP	20	48	6
TAP	20	96	5
TAP	20	120	4
TAP	20	144	4
TAP	20	192	2
TAP	20	216	3
TAP	20	240	4
TAP	20	264	5
TAP	20	288	4
TAP	20	312	3
TAP	20	360	4
TAP	20	360	5
TAP	21	24	1
TAP	21	24	4
TAP	21	72	2
TAP	21	72	3
TAP	21	120	1
TAP	21	144	0
TAP	21	168	7
TAP	21	192	1
TAP	21	240	5
TAP	21	264	4
TAP	21	288	3
TAP	21	312	4
TAP	21	360	2
TAP	21	360	3
TAP	22	24	0
TAP	22	24	7
TAP	22	72	3
TAP	22	72	4
TAP	22	120	2
TAP	22	144	2
TAP	22	192	4
TAP	22	192	5
TAP	22	240	1
TAP	22	264	2
TAP	22	288	0
TAP	22	312	1
TAP	22	360	4
TAP	22	360	5
TAP	23	48	5
TAP	23	72	4
TAP	23	96	3
TAP	23	120	2
TAP	23	144	3
TAP	23	168	4
TAP	23	192	5
TAP	23	240	1
TAP	23	264	1
TAP	23	288	4
TAP	23	312	5
TAP	23	360	2
TAP	23	360	3
TAP	24	48	7
TAP	24	72	0
TAP	24	96	7
TAP	24	120	6
TAP	24	144	7
TAP	24	192	0
TAP	24	240	1
STR	24	288	2
SCR	24	288	2	96	288	1
TAP	24	312	2
HLD	26	0	0	48
HLD	26	0	4	48
HLD	26	72	2	72
HLD	26	72	6	72
TAP	26	168	1
TAP	26	216	6
TAP	26	240	3
TAP	26	264	5
TAP	26	288	4
TAP	26	336	2
TAP	26	360	3
TAP	27	0	2
TAP	27	0	3
TAP	27	72	4
TAP	27	72	5
TAP	27	96	6
TAP	27	168	4
TAP	27	168	5
TAP	27	216	1
TAP	27	240	4
TAP	27	264	2
TAP	27	288	3
TAP	27	312	4
TAP	27	336	3
TAP	27	360	2
HLD	28	0	3	48
TAP	28	72	2
TAP	28	72	3
TAP	28	96	2
TAP	28	168	4
TAP	28	168	5
TAP	28	216	6
TAP	28	240	3
TAP	28	264	5
TAP	28	288	4
TAP	28	312	3
TAP	28	336	4
TAP	28	360	5
HLD	29	0	4	48
TAP	29	72	4
TAP	29	72	5
TAP	29	96	5
TAP	29	168	3
TAP	29	168	4
STR	29	216	1
SSR	29	216	1	96	48	5
TAP	29	240	1
TAP	29	264	1
TAP	30	0	6
TAP	30	48	4
TAP	30	73	4
TAP	30	120	5
TAP	30	144	5
TAP	30	192	1
TAP	30	240	3
TAP	30	264	3
TAP	30	312	2
TAP	30	336	2
TAP	31	0	4
TAP	31	48	3
TAP	31	72	3
TAP	31	120	5
TAP	31	144	5
TAP	31	192	3
TAP	31	240	2
TAP	31	264	2
TAP	31	312	5
TAP	31	336	4
TAP	31	336	5
TAP	32	0	2
TAP	32	0	3
TAP	32	48	2
TAP	32	72	3
TAP	32	120	2
TAP	32	144	4
TAP	32	192	4
TAP	32	192	5
TAP	32	240	5
TAP	32	264	4
TAP	32	312	5
TAP	32	336	3
TAP	33	0	1
TAP	33	0	3
TAP	33	48	2
TAP	33	72	3
TAP	33	120	2
TAP	33	144	4
TAP	33	192	4
TAP	33	192	6
TAP	33	240	5
TAP	33	264	4
TAP	33	312	5
TAP	33	336	3
STR	34	0	6
SI_	34	0	6	96	48	3
STR	34	72	3
SUL	34	72	3	96	48	5
TAP	34	144	0
STR	34	192	1
SI_	34	192	1	96	48	4
STR	34	264	4
SUR	34	264	4	96	48	2
TAP	34	336	7
STR	35	0	6
SI_	35	0	6	96	48	3
STR	35	72	3
SUL	35	72	3	96	48	5
TAP	35	144	0
STR	35	192	1
SI_	35	192	1	96	48	4
STR	35	264	4
SUR	35	264	4	96	48	2
TAP	35	336	7
STR	36	0	6
SI_	36	0	6	96	48	3
STR	36	72	3
SUL	36	72	3	96	48	5
TAP	36	144	0
STR	36	192	1
SI_	36	192	1	96	48	4
STR	36	264	4
SUR	36	264	4	96	48	2
TAP	36	336	7
STR	37	0	6
SI_	37	0	6	96	48	3
STR	37	72	3
SUL	37	72	3	96	48	5
TAP	37	144	0
STR	37	192	1
SUR	37	192	1	96	48	7
TAP	37	264	1
TAP	37	312	5
TAP	37	336	5
STR	38	0	0
SI_	38	0	0	96	192	3
TAP	38	24	0
TAP	38	48	0
HLD	38	72	0	216
HLD	39	0	4	48
HLD	39	0	5	48
TAP	39	72	4
TAP	39	72	5
TAP	39	96	3
TAP	39	96	6
TAP	39	168	2
TAP	39	168	3
TAP	39	216	2
TAP	39	240	3
TAP	39	288	1
TAP	39	288	4
TAP	39	360	6
TAP	40	0	6
TAP	40	24	1
STR	40	48	1
SI_	40	48	1	96	48	6
STR	40	96	6
SI_	40	96	6	96	48	3
STR	40	144	3
SUL	40	144	3	96	48	4
TAP	41	0	3
TAP	41	0	6
TAP	41	48	1
TAP	41	48	4
TAP	41	96	2
TAP	41	96	5
TAP	41	168	3
TAP	41	168	4
TAP	41	216	5
TAP	41	240	5
TAP	41	288	1
TAP	41	312	3
TAP	41	336	2
TAP	41	360	3
STR	42	0	0
SI_	42	0	0	96	48	4
STR	42	48	4
SI_	42	48	4	96	48	1
TAP	42	72	4
STR	42	192	7
SI_	42	192	7	96	48	3
STR	42	240	3
SI_	42	240	3	96	48	6
TAP	42	264	3
STR	43	0	0
SI_	43	0	0	96	48	4
STR	43	48	4
SV_	43	48	4	96	48	2
TAP	43	72	4
STR	43	192	7
SI_	43	192	7	96	48	3
STR	43	240	3
SV_	43	240	3	96	48	5
TAP	43	264	3
STR	44	0	0
SI_	44	0	0	96	48	4
STR	44	48	4
SUR	44	48	4	96	48	1
TAP	44	72	4
STR	44	192	7
SI_	44	192	7	96	48	3
STR	44	240	3
SUL	44	240	3	96	48	6
TAP	44	264	3
TAP	45	0	2
TAP	45	24	2
TAP	45	48	5
TAP	45	72	5
TAP	45	96	1
TAP	45	120	1
TAP	45	144	6
TAP	45	168	6
TAP	45	192	0
TAP	45	192	7
TAP	45	216	0
TAP	45	216	7
TAP	45	240	0
TAP	45	240	7
BRK	45	264	0
BRK	45	264	7
TAP	45	312	2
TAP	45	336	2
TAP	45	336	3
STR	46	0	1
SI_	46	0	1	96	48	4
STR	46	48	4
SV_	46	48	4	96	48	2
TAP	46	72	4
TAP	46	120	6
TAP	46	144	6
STR	46	192	5
SI_	46	192	5	96	48	0
STR	46	240	0
SV_	46	240	0	96	48	6
TAP	46	264	0
TAP	46	312	1
TAP	46	336	1
STR	47	0	2
SI_	47	0	2	96	48	7
STR	47	48	7
SV_	47	48	7	96	48	1
TAP	47	72	7
TAP	47	120	5
TAP	47	144	5
STR	47	192	6
SI_	47	192	6	96	48	3
STR	47	240	3
SV_	47	240	3	96	48	5
TAP	47	264	3
TAP	47	312	2
TAP	47	336	2
STR	48	0	1
SV_	48	0	1	96	48	3
STR	48	48	3
SI_	48	48	3	96	48	0
TAP	48	72	3
TAP	48	120	7
TAP	48	144	7
STR	48	192	6
SV_	48	192	6	96	48	4
STR	48	240	4
SI_	48	240	4	96	48	7
TAP	48	264	4
TAP	48	312	0
TAP	48	336	0
STR	49	0	1
SI_	49	0	1	96	48	6
STR	49	48	6
SV_	49	48	6	96	48	0
TAP	49	72	6
BRK	49	192	7
BRK	49	240	5
BRK	49	288	1
BRK	49	336	3
STR	50	0	1
SUL	50	0	1	96	48	4
STR	50	48	4
SUL	50	48	4	96	48	0
TAP	50	72	4
TAP	50	120	6
TAP	50	144	5
STR	50	192	6
SUR	50	192	6	96	48	3
STR	50	240	3
SUR	50	240	3	96	48	7
TAP	50	264	3
TAP	50	312	1
TAP	50	336	2
STR	51	0	2
SUR	51	0	2	96	48	7
STR	51	48	7
SUR	51	48	7	96	48	3
TAP	51	72	7
TAP	51	120	6
TAP	51	144	5
STR	51	192	5
SUL	51	192	5	96	48	0
STR	51	240	0
SUL	51	240	0	96	48	4
TAP	51	264	0
TAP	51	312	1
TAP	51	336	2
STR	52	0	2
SUL	52	0	2	96	48	4
STR	52	48	4
SUL	52	48	4	96	48	7
TAP	52	72	4
TAP	52	120	6
TAP	52	144	5
STR	52	192	5
SUR	52	192	5	96	48	3
STR	52	240	3
SUR	52	240	3	96	48	0
TAP	52	264	3
TAP	52	312	1
TAP	52	336	2
STR	53	0	1
SUR	53	0	1	96	48	7
STR	53	48	7
SCR	53	48	7	96	48	2
TAP	53	72	7
TAP	53	120	5
TAP	53	144	5
STR	53	192	6
SI_	53	192	6	96	48	1
STR	53	240	1
SUL	53	240	1	96	48	3
TAP	53	288	0
TAP	53	312	0
STR	53	360	2
SI_	53	360	2	96	120	5
STR	55	0	2
SI_	55	0	2	96	96	5
STR	56	0	2
SI_	56	0	2	96	96	5
STR	57	0	2
SSL	57	0	2	96	96	6

T_REC_TAP	366
T_REC_BRK	6
T_REC_XTP	0
T_REC_HLD	31
T_REC_XHO	0
T_REC_STR	77
T_REC_BST	0
T_REC_XST	0
T_REC_TTP	0
T_REC_THO	0
T_REC_SLD	77
T_REC_ALL	557
T_NUM_TAP	443
T_NUM_BRK	6
T_NUM_HLD	31
T_NUM_SLD	77
T_NUM_ALL	557
T_JUDGE_TAP	449
T_JUDGE_HLD	106
T_JUDGE_SLD	77
T_JUDGE_ALL	632
TTM_EACHPAIRS	49
TTM_SCR_TAP	221500
TTM_SCR_BRK	15600
TTM_SCR_HLD	31000
TTM_SCR_SLD	115500
TTM_SCR_ALL	383600
TTM_SCR_S	371550
TTM_SCR_SS	383000
TTM_RAT_ACV	10015

